Сообщения без ответов | Активные темы Текущее время: 2022-05-17 00:56



Ответить на тему  [ 1 сообщение ] 
Великолепный век / Muhtesem Yuzyil / Сезон: 4 (4) / Серия 121 (из ?) (Мерт Байкал, Ягиз Алп Акайдын) [2013, Драма, мелодрама, история, WEB-DLRip] VO (turok1990) 
Автор Сообщение
Релизер
Релизер
Раздал: 157 ГБ
Скачал: 4 ГБ
Ратио: 39.250


Зарегистрирован: 2013-08-21 19:15
Сообщения: 48356
Ответить с цитатой 
[size=116]
[size=114][size=124]Великолепный век / Muhtesem Yuzyil

#777
#777

Год выпуска: 2014
Страна: Турция
Производство: TIMS Productions
Жанр: Драма, мелодрама, военный, истрия

Продолжительность: 01:55:23
Перевод: Любительский одноголосый закадровый (turok1990)
Субтитры: отсутствуют

Режиссёр: Мерт Байкал, Ягиз Алп Акайдын

В ролях:
Халит Эргенч, Вахиде Перчин, Нур Айсан, Мехмет Гюнсюр, Беррак Тюзюнатач, Арас Булут Ийнемли,
Озан Гювен, Пелин Карахан, Мерве Болугур, Энгин Озтюрк, Тольга Сарыташ, Сарп Аккая, Мельтем Джумбул,
Серкан Алтунорак, Тунджель Куртиз, Небахат Чехре, Бурак Озчивит, Окан Ялабык, Филиз Ахмет, Дениз Чакыр,
Сельма Эргеч, Селим Байрактар, Гюрбей Илери[center]

Описание:
Сериал повествует о правлении султана Сулеймана Великолепного и его страстной любви к украинской красавице Роксалане.
Согласно канонам исламской веры, султан мог иметь четырех законных жен и столько наложниц, сколько сможет содержать.
При этом, дети первой жены становились преемниками престола. Роксолана еще девочкой была захвачена в плен и переправлена в Стамбул,
где визирь Ибрагим-паша подарил ее султану. Путем интриг, подкупа и умелого обольщения украинская красавица стала женой султана.
После принятия ислама она получила имя Хюррем. Сулейман возвел Роксолану в ранг главной жены, и называл ее не иначе как «милой сердцу».
Роксолана была не только искусной любовницей, но и умной, интересной собеседницей, хорошо разбирающейся в искусстве и государственных делах.
Чтобы реализовать свои амбиции в султанате, Хюррем устраняла всех, кто мог ей в этом помешать. В основу сценария легло несколько исторических романов и средневековых документов.

Качество: WEB-DLRip
Формат: AVI
Видео кодек: DivX
Аудио кодек: MP3
Видео: 940x520 (1.81:1), 25 fps, Intel ITU H.264 ~1554 kbps avg, 0.13 bit/pixel
Аудио: 48 kHz, MPEG Layer 3, 2 ch, ~160.00 kbps avg
[/size]
[/center][/size][/size]


Общее
Полное имя : 121.avi
Формат : AVI
Формат/Информация : Audio Video Interleave
Профиль формата : OpenDML
Размер файла : 1,39 Гбайт
Продолжительность : 1 ч. 55 м.
Режим общего битрейта : Переменный
Общий поток : 1722 Кбит/сек
Программа кодирования : Lavf54.63.104

Видео
Идентификатор : 0
Формат : AVC
Формат/Информация : Advanced Video Codec
Профиль формата : Main@L3.1
Параметр CABAC формата : Да
Параметр ReFrames формата : 1 кадр
Параметр GOP формата : M=1, N=15
Идентификатор кодека : H264
Продолжительность : 1 ч. 55 м.
Вид битрейта : Переменный
Битрейт : 1547 Кбит/сек
Максимальный битрейт : 4638 Кбит/сек
Ширина : 940 пикселей
Высота : 520 пикселей
Соотношение сторон : 16:9
Частота кадров : 25,000 кадров/сек
Цветовое пространство : YUV
Субдискретизация насыщенности : 4:2:0
Битовая глубина : 8 бит
Тип развёртки : Прогрессивная
Бит/(Пиксели*Кадры) : 0.127
Размер потока : 1,25 Гбайт (90%)

Аудио
Идентификатор : 1
Формат : MPEG Audio
Версия формата : Version 1
Профиль формата : Layer 3
Режим : Joint stereo
Расширение режима : MS Stereo
Идентификатор кодека : 55
Идентификатор кодека/Подсказка : MP3
Продолжительность : 1 ч. 55 м.
Вид битрейта : Постоянный
Битрейт : 160 Кбит/сек
Каналы : 2 канала
Частота : 48,0 КГц
Метод сжатия : С потерями
Размер потока : 132 Мбайт (9%)
Выравнивание : Соединение по промежуткам
Продолжительность промежутка : 24 мс. (0,60 видеокадр)











2014-02-04 15:04
Профиль
  • Торрент
Автор: virus Хэш: ---
Добавлен: 2014-02-04 15:02 Приватный: Нет (DHT включён)
Статус:
---
Размер: 1.39 ГБ (1 490 036 664 байт)
Изменил:
---
Скачали: 0 (Раздающих: 0%)
Причина:
---
Здоровье: 0%
Сидеров: 0 Личеров: 0
Скорость раздачи: 0 байт/сек Скорость скачивания: 0 байт/сек
Последний сидер: Нет Последний личер: Нет
Для скачивания торрента необходимо зарегистрироваться или войти на трекер.
Показать сообщения за:  Поле сортировки  
Ответить на тему   [ 1 сообщение ] 

Кто сейчас на конференции

Сейчас этот форум просматривают: нет зарегистрированных пользователей и гости: 1


Вы не можете начинать темы
Вы не можете отвечать на сообщения
Вы не можете редактировать свои сообщения
Вы не можете удалять свои сообщения
Вы не можете добавлять вложения

Найти:
Перейти:  
Создано на основе phpBB® Forum Software © phpBB Group
ppkBB3cker v.2.5 © 2008-2021 @ PPK | Icon Theme by Everaldo.com Design Studio
Designed by ST Software.
Русская поддержка phpBB
[ Time : 0.184s | 18 Queries | GZIP : Off ]
Ресурс не предоставляет электронные версии произведений, а занимается лишь коллекционированием и каталогизацией ссылок, присылаемых и публикуемых на форуме нашими читателями. Если вы являетесь правообладателем какого-либо представленного материала и не желаете чтобы ссылка на него находилась в нашем каталоге, свяжитесь с нами и мы незамедлительно удалим её. Файлы для обмена на трекере предоставлены пользователями сайта, и администрация не несёт ответственности за их содержание. Просьба не заливать файлы, защищенные авторскими правами, а также файлы нелегального содержания!
tracker_cron Яндекс.Метрика