Сообщения без ответов | Активные темы Текущее время: 2022-05-16 23:46



Ответить на тему  [ 1 сообщение ] 
Бедная миллионерша / Pobre Millonaria / Серии 43-59, 61-96 (96) (Альдо Сальвини, Каридад Дельгадо, Герардо Херрера) [2008 г., теленовелла, IPTVRip, sub] 
Автор Сообщение
Релизер
Релизер
Раздал: 157 ГБ
Скачал: 4 ГБ
Ратио: 39.250


Зарегистрирован: 2013-08-21 19:15
Сообщения: 48356
Ответить с цитатой 
Бедная миллионерша / Pobre Millonaria / Серии 43-59, 61-96 (96)

#777
Год выпуска: 2008
Страна: Венесуэла
Жанр: теленовелла
Продолжительность: 0:40
Перевод: латышский
Русские субтитры: есть

Режиссер: Альдо Сальвини, Каридад Дельгадо, Герардо Херрера

В ролях: Джанелла Нейра, Хорхе Арабена, Эдуардо Серрано, Роксана Диас

Описание: Изабела – единственная дочь мультимиллионера Фернандо Андреса Дель Кастильо, владельца крупнейшего в стране торгового консорциума. Однажды ей предстоит унаследовать огромное состояние и процветающий семейный бизнес. Но ни бизнес, ни деньги, ни положение в обществе её не интересуют. Изабеле уже 29, у неё несколько степеней математического образования, и большую часть жизни она проводит в уединении на семейном ранчо. Проблема в том, что, несмотря на свой выдающийся ум, она не чувствует себя достойным и уверенным в себе человеком, потому что отец постоянно сравнивает её с Амандой, матерью Изабелы, умершей при родах, и все сравнения идут не в пользу Изабелы.
Заботясь о будущем своей торговой империи, Фернандо Андрес заставляет Изабелу начать работать в компании, чтобы ближе познакомиться с бизнесом, который когда-нибудь станет её собственным. И именно там Изабела встречает свою любовь.
Луис Артуро Рамирес работает в компании, входящей в консорциум семьи Дель Кастильо. Он симпатичный и щедрый, у него множество подружек, но он избегает серьёзных отношений. После неприятного недоразумения с новой служащей, которая оказывается дочерью владельца консорциума, он предлагает ей помощь и дружбу, пока она привыкает к новому месту. Изабеле очень нравится Луис Артуро, и она с радостью соглашается.
События принимают драматический оборот, когда неожиданно приезжает кузина Изабелы Дамиана, проведшая большую часть жизни за границей. Удивительное сходство Дамианы со своей умершей тётей Амандой зачаровывает Фернандо Андреса, и амбициозная девушка решает этим воспользоваться в своих интересах. Чтобы усугубить текущее положение дел, хитрая Дамиана вовлекает Луиса Артуро в коварное соревнование, кто первый захватит власть над империей Дель Кастильо, - он, соблазнив Изабелу, или она, обольстив Фернандо Андреса.
Ведя эту опасную игру, Луис Артуро по-настоящему влюбляется в Изабелу, к ярости Дамианы, которая сама уже полюбила Луиса Артуро. Он пытается всё объяснить Изабеле, но уже поздно, разъярённая Дамиана уже успевает поведать Изабеле об их пари. Обиженная и оскорблённая, Изабела наконец-то решает взять в руки свою жизнь. Она превращается в великолепную влиятельную женщину, желающую завоевать всеобщее уважение и показать Луису Артуро свою новую силу и уверенность.

Рип: shtange

43-59, 61-92 серии
Качество: IPTVRip
Формат: AVI
Видео кодек: XviD
Аудио кодек: MP3
Видео: 480x360 (1.33:1) 25.00fps 1084 kbps avg 0.25 bit/pixel
Аудио: MPEG Audio Layer 3 48000Hz stereo 128Kbps






Complete name : Pobre Millonaria 44.avi
Format : AVI
Format/Info : Audio Video Interleave
File size : 350 MiB
Duration : 40mn 5s
Overall bit rate : 1 222 Kbps
Writing library : VirtualDub build 32817/release

Video
Format : MPEG-4 Visual
Format profile : Streaming Video@L1
Format settings, BVOP : Yes
Format settings, QPel : No
Format settings, GMC : No warppoints
Format settings, Matrix : Default (H.263)
Muxing mode : Packed bitstream
Codec ID : XVID
Codec ID/Hint : XviD
Duration : 40mn 5s
Bit rate : 1 084 Kbps
Width : 480 pixels
Height : 360 pixels
Display aspect ratio : 4/3
Frame rate : 25.000 fps
Resolution : 24 bits
Colorimetry : 4:2:0
Scan type : Progressive
Bits/(Pixel*Frame) : 0.251
Stream size : 311 MiB (89%)
Writing library : XviD 1.2.1 (UTC 2008-12-04)

Audio
Format : MPEG Audio
Format version : Version 1
Format profile : Layer 3
Codec ID : 55
Codec ID/Hint : MP3
Duration : 40mn 5s
Bit rate mode : Constant
Bit rate : 128 Kbps
Channel(s) : 2 channels
Sampling rate : 44.1 KHz
Resolution : 16 bits
Stream size : 36.7 MiB (10%)
Alignment : Split accross interleaves
Interleave, duration : 40 ms (1.00 video frame)
Interleave, preload duration : 500 ms

93-96 серии
Качество: IPTVRip
Формат: AVI
Видео кодек: XviD
Аудио кодек: MP3
Видео: XVID 640x480 (1.33:1) 25.00fps ~1200Kbps 0.15 bit/pixel
Аудио: MPEG Audio Layer 3 48000Hz stereo 128Kbps






Complete name : Pobre Millonaria 93.avi
Format : AVI
Format/Info : Audio Video Interleave
File size : 375 MiB
Duration : 37mn 51s
Overall bit rate : 1 385 Kbps
Writing library : VirtualDub build 32817/release

Video
Format : MPEG-4 Visual
Format profile : Streaming Video@L1
Format settings, BVOP : Yes
Format settings, QPel : No
Format settings, GMC : No warppoints
Format settings, Matrix : Default (H.263)
Muxing mode : Packed bitstream
Codec ID : XVID
Codec ID/Hint : XviD
Duration : 37mn 51s
Bit rate : 1 247 Kbps
Width : 640 pixels
Height : 480 pixels
Display aspect ratio : 4/3
Frame rate : 25.000 fps
Resolution : 24 bits
Colorimetry : 4:2:0
Scan type : Progressive
Bits/(Pixel*Frame) : 0.162
Stream size : 338 MiB (90%)
Writing library : XviD 1.2.1 (UTC 2008-12-04)

Audio
Format : MPEG Audio
Format version : Version 1
Format profile : Layer 3
Codec ID : 55
Codec ID/Hint : MP3
Duration : 37mn 51s
Bit rate mode : Constant
Bit rate : 128 Kbps
Channel(s) : 2 channels
Sampling rate : 48.0 KHz
Resolution : 16 bits
Stream size : 34.7 MiB (9%)
Alignment : Split accross interleaves
Interleave, duration : 40 ms (1.00 video frame)
Interleave, preload duration : 500 ms

Все раздачи сериала


2013-10-06 08:30
Профиль
  • Торрент
Автор: virus Хэш: ---
Добавлен: 2013-10-06 08:18 Приватный: Нет (DHT включён)
Статус:
---
Размер: 18.15 ГБ (19 493 235 148 байт)
Изменил:
---
Скачали: 0 (Раздающих: 0%)
Причина:
---
Здоровье: 0%
Сидеров: 0 Личеров: 0
Скорость раздачи: 0 байт/сек Скорость скачивания: 0 байт/сек
Последний сидер: Нет Последний личер: Нет
Для скачивания торрента необходимо зарегистрироваться или войти на трекер.
Показать сообщения за:  Поле сортировки  
Ответить на тему   [ 1 сообщение ] 

Кто сейчас на конференции

Сейчас этот форум просматривают: нет зарегистрированных пользователей и гости: 1


Вы не можете начинать темы
Вы не можете отвечать на сообщения
Вы не можете редактировать свои сообщения
Вы не можете удалять свои сообщения
Вы не можете добавлять вложения

Найти:
Перейти:  
Создано на основе phpBB® Forum Software © phpBB Group
ppkBB3cker v.2.5 © 2008-2021 @ PPK | Icon Theme by Everaldo.com Design Studio
Designed by ST Software.
Русская поддержка phpBB
[ Time : 0.184s | 20 Queries | GZIP : Off ]
Ресурс не предоставляет электронные версии произведений, а занимается лишь коллекционированием и каталогизацией ссылок, присылаемых и публикуемых на форуме нашими читателями. Если вы являетесь правообладателем какого-либо представленного материала и не желаете чтобы ссылка на него находилась в нашем каталоге, свяжитесь с нами и мы незамедлительно удалим её. Файлы для обмена на трекере предоставлены пользователями сайта, и администрация не несёт ответственности за их содержание. Просьба не заливать файлы, защищенные авторскими правами, а также файлы нелегального содержания!
tracker_cron Яндекс.Метрика