Сообщения без ответов | Активные темы Текущее время: 2023-01-28 19:48



Ответить на тему  [ 1 сообщение ] 
Банды Нью-Йорка / Gangs of New York (Мартин Скорсезе) [2002, драма, криминал, история, WEB-DLRip-AVC / Open Matte / D] 
Автор Сообщение
Друг треккера
Друг треккера
Аватара пользователя
Раздал: 13.04 ТБ
Скачал: 11.16 ТБ
Ратио: 1000.168


Зарегистрирован: 2014-09-04 09:24
Сообщения: 5602
Откуда: С планеты Земля
Ответить с цитатой 
#777

Банды Нью-Йорка / Gangs of New York


Информация о фильме
Название: Банды Нью-Йорка
Оригинальное название: Gangs of New York
Год выхода: 2002
Страна: США, Германия, Великобритания
Студия: Miramax Films
Продолжительность: 02:46:33
Перевод: Профессиональный (дублированный)
Жанр: драма, криминал, история

Режиссер: Мартин Скорсезе / Martin Scorsese

В ролях: Леонардо ДиКаприо, Дэниэл Дэй-Льюис, Кэмерон Диаз, Джим Бродбент, Джон Си Райли, Генри Томас, Лиам Нисон, Брендан Глисон, Гари Льюис, Стивен Грэм...

О фильме:
Нью-Йорк, 1863 год. В диких трущобах города «американской мечты» действует только один закон - закон силы. Здесь идет в ход любое оружие, никто не считает потерь и не оплакивает погибших. В одной из жестоких стычек от рук вожака «коренных американцев» - Мясника Билла погибает предводитель банды «ирландцев» Вэллон.
Его сын Амстердам надолго попадает в исправительную школу, затаив ненависть на Мясника, ставшего хозяином окрестных кварталов. Спустя годы не узнанный никем Амстердам возвратится на родные улицы с единственной целью - отомстить убийце отца…




Файл
Формат: Matroska
Качество: WEB-DLRip-AVC - Open Matte [WEB-DL 1080p (Amazon)]
Видео: High@L4.1, 960x540 (16:9), ~1487 Kbps, 23.976 fps
Аудио: 48 kHz, AC3, 3/2 (L,C,R,l,r) + LFE ch, 384 kbps
Субтитры: русские, английские
Формат субтитров: softsub (SRT)

Video
ID : 1
Format : AVC
Format/Info : Advanced Video Codec
Format profile : High@L4.1
Format settings : CABAC / 11 Ref Frames
Format settings, CABAC : Yes
Format settings, ReFrames : 11 frames
Codec ID : V_MPEG4/ISO/AVC
Duration : 2 h 46 min
Bit rate : 1 487 kb/s
Width : 960 pixels
Height : 540 pixels
Display aspect ratio : 16:9
Frame rate mode : Constant
Frame rate : 23.976 (24000/1001) FPS
Color space : YUV
Chroma subsampling : 4:2:0
Bit depth : 8 bits
Scan type : Progressive
Bits/(Pixel*Frame) : 0.120
Stream size : 1.69 GiB (78%)
Title : RIP_BY_-=DoMiNo=-
Writing library : x264 core 152 r2851M ba24899
Encoding settings : cabac=1 / ref=11 / deblock=1:-3:-3 / analyse=0x3:0x133 / me=umh / subme=11 / psy=1 / psy_rd=1.05:0.15 / mixed_ref=1 / me_range=56 / chroma_me=1 / trellis=2 / 8x8dct=1 / cqm=0 / deadzone=21,11 / fast_pskip=1 / chroma_qp_offset=-3 / threads=5 / lookahead_threads=1 / sliced_threads=0 / nr=0 / decimate=1 / interlaced=0 / bluray_compat=0 / constrained_intra=0 / bframes=12 / b_pyramid=2 / b_adapt=2 / b_bias=0 / direct=3 / weightb=1 / open_gop=0 / weightp=2 / keyint=240 / keyint_min=24 / scenecut=40 / intra_refresh=0 / rc_lookahead=60 / rc=2pass / mbtree=1 / bitrate=1487 / ratetol=1.0 / qcomp=0.70 / qpmin=0 / qpmax=69 / qpstep=4 / cplxblur=20.0 / qblur=0.5 / ip_ratio=1.40 / aq=1:1.00
Language : English
Default : Yes
Forced : No
Color range : Limited
Color primaries : BT.709
Transfer characteristics : BT.709
Matrix coefficients : BT.709

Audio
ID : 2
Format : AC-3
Format/Info : Audio Coding 3
Codec ID : A_AC3
Duration : 2 h 46 min
Bit rate mode : Constant
Bit rate : 384 kb/s
Channel(s) : 6 channels
Channel positions : Front: L C R, Side: L R, LFE
Sampling rate : 48.0 kHz
Frame rate : 31.250 FPS (1536 SPF)
Bit depth : 16 bits
Compression mode : Lossy
Stream size : 457 MiB (20%)
Title : DUB
Language : Russian
Service kind : Complete Main
Default : Yes
Forced : No

Text #1
ID : 3
Format : UTF-8
Codec ID : S_TEXT/UTF8
Codec ID/Info : UTF-8 Plain Text
Duration : 2 h 39 min
Language : Russian
Default : Yes
Forced : No

Text #2
ID : 4
Format : UTF-8
Codec ID : S_TEXT/UTF8
Codec ID/Info : UTF-8 Plain Text
Duration : 2 h 46 min
Language : English
Default : No
Forced : No

Text #3
ID : 5
Format : UTF-8
Codec ID : S_TEXT/UTF8
Codec ID/Info : UTF-8 Plain Text
Duration : 2 h 43 min
Title : SDH
Language : English
Default : No
Forced : No

Text #4
ID : 6
Format : UTF-8
Codec ID : S_TEXT/UTF8
Codec ID/Info : UTF-8 Plain Text
Duration : 2 h 38 min
Title : (Commentary by Martin Scorsese)
Language : English
Default : No
Forced : No

Menu
00:00:00.000 : :Battle of the Five Points
00:15:03.033 : :A City in Turmoil
00:23:34.415 : :The Gangs
00:27:40.119 : :Fighting Over Fires
00:33:17.121 : :Bill's Tribute
00:38:40.469 : :"A Couple of Fidlam Bens"
00:45:56.379 : :My Medal
00:52:44.412 : :The Butcher's Lesson
01:01:36.819 : :The Queen of the Dance
01:10:27.765 : :Under the Dragon's Wing
01:20:42.590 : :"I'll Bite You"
01:25:11.107 : :"Civilization Is Crumbling"
01:33:21.055 : :Betrayal
01:36:41.381 : :"This Is a Night for Americans!"
01:43:18.568 : :Spared by the Butcher
01:47:35.493 : :Regaining a Full Heart
01:54:23.482 : :"Old Uncle Jack"
02:00:56.416 : :"Just Kill Me"
02:07:00.018 : :Sheriff Monk
02:12:25.397 : :Notch 45
02:18:01.588 : :Setting Terms
02:22:57.693 : :Mob Rule
02:29:20.202 : :A True American
02:37:51.366 : :End Credits

***Релиз от: -=DoMiNo=-


2023-01-23 15:10
Профиль WWW
  • Торрент
Автор: Sovetnik Хэш: ---
Добавлен: 2023-01-23 15:10 Приватный: Нет (DHT включён)
Статус: Проверен
Размер: 2.18 ГБ (2 340 054 801 байт)
Изменил:
---
Скачали: 37 (Раздающих: 0%)
Причина:
---
Здоровье: 100%
Сидеров: 13 Личеров: 9
Скорость раздачи: 0 байт/сек Скорость скачивания: 0 байт/сек
Последний сидер: 3 часа 10 минут 46 секунд назад Последний личер: 3 часа 10 минут 46 секунд назад
Для скачивания торрента необходимо зарегистрироваться или войти на трекер.
Показать сообщения за:  Поле сортировки  
Ответить на тему   [ 1 сообщение ] 

Кто сейчас на конференции

Сейчас этот форум просматривают: нет зарегистрированных пользователей и гости: 2


Вы не можете начинать темы
Вы не можете отвечать на сообщения
Вы не можете редактировать свои сообщения
Вы не можете удалять свои сообщения
Вы не можете добавлять вложения

Найти:
Перейти:  
Создано на основе phpBB® Forum Software © phpBB Group
ppkBB3cker v.2.5 © 2008-2021 @ PPK | Icon Theme by Everaldo.com Design Studio
Designed by ST Software.
Русская поддержка phpBB
[ Time : 0.182s | 20 Queries | GZIP : Off ]
Ресурс не предоставляет электронные версии произведений, а занимается лишь коллекционированием и каталогизацией ссылок, присылаемых и публикуемых на форуме нашими читателями. Если вы являетесь правообладателем какого-либо представленного материала и не желаете чтобы ссылка на него находилась в нашем каталоге, свяжитесь с нами и мы незамедлительно удалим её. Файлы для обмена на трекере предоставлены пользователями сайта, и администрация не несёт ответственности за их содержание. Просьба не заливать файлы, защищенные авторскими правами, а также файлы нелегального содержания!
tracker_cron Яндекс.Метрика