Сообщения без ответов | Активные темы Текущее время: 2023-01-28 19:30



Ответить на тему  [ 1 сообщение ] 
Одни из нас / The Last of Us [01x01-02 из 09] (Али Аббаси и др.) [2023, ужасы, фантастика, боевик, драма, WEB-DL 1080p / Dubbing-Pro] 
Автор Сообщение
Постоянный
Постоянный
Аватара пользователя
Раздал: 332.24 ГБ
Скачал: 8.73 ГБ
Ратио: 200.066


Зарегистрирован: 2015-05-20 17:38
Сообщения: 1437
Откуда: Откуда и все
Ответить с цитатой 
#777

Одни из нас / The Last of Us
[01x01-02 из 09]


Информация о фильме
Название: Одни из нас
Оригинальное название: The Last of Us
Год выхода: 2023
Страна: Канада, США
Студия: Canadian Film or Video Production Tax Credit (CPTC), Government of Alberta, Naughty Dog
Продолжительность: ~01:00:00 серия
Перевод: Профессиональный (многоголосый, закадровый) студия Dubbing-Pro совместно с Deluxe Media
Роли озвучивали: Моряна Анттонен-Шестакова, Анастасия Жаркова, Иван Калинин, Алия Насырова, Александр Воронов, Геннадий Новиков
Жанр: ужасы, фантастика, боевик, драма

Режиссёр: Али Аббаси, Джереми Уэбб, Нил Дракманн

В ролях: Педро Паскаль, Белла Рэмси, Гэбриел Луна, Ник Офферман, Кон О’Нилл, Мерл Дэндридж, Джеффри Пирс, Анна Торв, Мюррэй Бартлетт, Марли Грэйс Бекер, Мелани Лински, Эшли Джонсон, Джанни Калькетти, Трой Бэйкер, Сторм Рейд...

О фильме:
Человечество столкнулось с грибковой пандемией. Зараженные превращаются в зомби, выжившие борются за ресурсы воцарившегося постапокалипсиса. Контрабандист Джоэл (Паскаль) получает задание вывести из карантинной зоны 14-летнюю Элли (Рэмси), чей иммунитет к болезни может помочь в разработке вакцины...





Файл
Качество: WEB-DL 1080p | The.Last.of.Us.S01.1080p.HMAX.WEB-DL.DDP5.1.Atmos.x264-SMURF
Формат: Matroska
Видео: 1920х1080 at 23.976 fps, MPEG4-AVC, ~8250 kbps avg
Аудио#1: Russian: 48 kHz, AC3, 3/2 (L,C,R,l,r) + LFE ch, ~384 kbps avg |Многоголосый закадровый, студия Dubbing-Pro совместно с Deluxe Media|
Аудио#2: English: 48 kHz, E-AC3 JOC, 3/2 (L,C,R,l,r) + LFE ch, ~768 kbps avg
Субтитры: Russian (Forced, Full |HBO|), English (Full, SDH)

Джерард Батлер и Хью Джекман рассматривались на роль Джоэла.
Одноименная игра была названа лучшей игрой 2013 года.
[*]Мэйси Уильямс была одной из претенденток на роль Элли.
01. Когда ты потерялся в темноте / When You're Lost in the Darkness
02. Заражённые / Infected
General
Unique ID : 5398070224775156118052545213558775514 (0x40FA16905FDC5FF33C214919D695EDA)
Complete name : The.Last.of.Us.S01E01.1080p.HMAX.WEB-DL.DDP5.1.x264-NTb_EniaHD.mkv
Format : Matroska
Format version : Version 4
File size : 5.30 GiB
Duration : 1 h 20 min
Overall bit rate mode : Variable
Overall bit rate : 9 386 kb/s
Movie name : The Last of Us S01E01 [When You're Lost in the Darkness] - EniaHD
Writing application : mkvmerge v57.0.0 ('Till The End') 64-bit
Writing library : libebml v1.4.2 + libmatroska v1.6.4

Video
ID : 1
Format : AVC
Format/Info : Advanced Video Codec
Format profile : High@L4
Format settings : CABAC / 4 Ref Frames
Format settings, CABAC : Yes
Format settings, Reference fra : 4 frames
Codec ID : V_MPEG4/ISO/AVC
Duration : 1 h 20 min
Bit rate mode : Variable
Bit rate : 8 250 kb/s
Maximum bit rate : 12.4 Mb/s
Width : 1 920 pixels
Height : 1 080 pixels
Display aspect ratio : 16:9
Frame rate mode : Constant
Frame rate : 23.976 (24000/1001) FPS
Color space : YUV
Chroma subsampling : 4:2:0
Bit depth : 8 bits
Scan type : Progressive
Bits/(Pixel*Frame) : 0.166
Stream size : 4.65 GiB (88%)
Writing library : x264 core 157 r2965 861cec4
Encoding settings : cabac=1 / ref=4 / deblock=1:0:0 / analyse=0x3:0x113 / me=hex / subme=7 / psy=1 / psy_rd=1.00:0.00 / mixed_ref=1 / me_range=16 / chroma_me=1 / trellis=1 / 8x8dct=1 / cqm=0 / deadzone=21,11 / fast_pskip=1 / chroma_qp_offset=-2 / threads=34 / lookahead_threads=5 / sliced_threads=0 / nr=0 / decimate=1 / interlaced=0 / bluray_compat=0 / constrained_intra=0 / bframes=3 / b_pyramid=2 / b_adapt=1 / b_bias=0 / direct=1 / weightb=1 / open_gop=0 / weightp=2 / keyint=96 / keyint_min=96 / scenecut=40 / intra_refresh=0 / rc_lookahead=40 / rc=2pass / mbtree=1 / bitrate=8250 / ratetol=1.0 / qcomp=0.60 / qpmin=0 / qpmax=69 / qpstep=4 / cplxblur=20.0 / qblur=0.5 / vbv_maxrate=12375 / vbv_bufsize=6187 / nal_hrd=vbr / filler=0 / ip_ratio=1.40 / aq=1:1.00
Default : Yes
Forced : No
Color range : Limited
Color primaries : BT.709
Transfer characteristics : BT.709
Matrix coefficients : BT.709

Audio #1
ID : 2
Format : AC-3
Format/Info : Audio Coding 3
Commercial name : Dolby Digital
Codec ID : A_AC3
Duration : 1 h 20 min
Bit rate mode : Constant
Bit rate : 384 kb/s
Channel(s) : 6 channels
Channel layout : L R C LFE Ls Rs
Sampling rate : 48.0 kHz
Frame rate : 31.250 FPS (1536 SPF)
Compression mode : Lossy
Stream size : 222 MiB (4%)
Language : Russian
Service kind : Complete Main
Default : Yes
Forced : No

Audio #2
ID : 3
Format : E-AC-3 JOC
Format/Info : Enhanced AC-3 with Joint Object Coding
Commercial name : Dolby Digital Plus with Dolby Atmos
Codec ID : A_EAC3
Duration : 1 h 20 min
Bit rate mode : Constant
Bit rate : 768 kb/s
Channel(s) : 6 channels
Channel layout : L R C LFE Ls Rs
Sampling rate : 48.0 kHz
Frame rate : 31.250 FPS (1536 SPF)
Compression mode : Lossy
Stream size : 444 MiB (8%)
Language : English
Service kind : Complete Main
Default : No
Forced : No
Complexity index : 16
Number of dynamic objects : 15
Bed channel count : 1 channel
Bed channel configuration : LFE

Text #1
ID : 4
Format : UTF-8
Codec ID : S_TEXT/UTF8
Codec ID/Info : UTF-8 Plain Text
Duration : 15 min 25 s
Bit rate : 0 b/s
Count of elements : 3
Stream size : 88.0 Bytes (0%)
Title : Forced
Language : Russian
Default : Yes
Forced : No

Text #2
ID : 5
Format : UTF-8
Codec ID : S_TEXT/UTF8
Codec ID/Info : UTF-8 Plain Text
Duration : 1 h 20 min
Bit rate : 68 b/s
Count of elements : 971
Stream size : 40.6 KiB (0%)
Language : Russian
Default : No
Forced : No

Text #3
ID : 6
Format : UTF-8
Codec ID : S_TEXT/UTF8
Codec ID/Info : UTF-8 Plain Text
Duration : 1 h 18 min
Bit rate : 49 b/s
Count of elements : 982
Stream size : 28.8 KiB (0%)
Language : English
Default : No
Forced : No

Text #4
ID : 7
Format : UTF-8
Codec ID : S_TEXT/UTF8
Codec ID/Info : UTF-8 Plain Text
Duration : 1 h 20 min
Bit rate : 60 b/s
Count of elements : 1247
Stream size : 35.4 KiB (0%)
Title : SDH
Language : English
Default : No
Forced : No

Menu
00:00:00.000 : Chapter 1
00:03:20.200 : Intro
00:04:27.268 : Chapter 2
01:19:36.000 : Credits
Когда раздача ведётся путём добавления новых серий, при каждом добавлении создётся новый торрент. Чтобы начать докачку новой серии, пользователям необходимо сделать следующее:
(1) остановить скачивание,
(2) удалить старый торрент у себя из клиента (старые серии удалять не надо),
(3) скачать новый торрент и запустить его у себя в клиенте вместо старого, при этом указать клиенту путь в старую папку, куда и должно происходить скачивание новых серий.
Ваш клиент при этом должен произвести хеширование (проверку) старой папки (если не производит сам - помогите ему сделать это), и будет докачивать только те серии, которых у вас ещё нет. Старые серии при этом не удаляются, а продолжают раздаваться!
Eсли вы уже удалили старые серии, то предотвратить повторную закачку старых серий можно, отжав галочку в соответсвующих местах при запуске нового торрента. По возможности, желательно не удалять старые серии как можно дольше, чтобы релизер не столько продолжал раздавать старые серии, а смог сконцентрироваться на новых.

***Релиз: Wilmots@EniaHD


2023-01-16 22:08
Профиль WWW
  • Торрент
Автор: Блудный Хэш: ---
Добавлен: 2023-01-23 15:40 Приватный: Нет (DHT включён)
Статус: Проверен
Размер: 8.98 ГБ (9 636 843 177 байт)
Изменил:
---
Скачали: 3491 (Раздающих: 0%)
Причина:
---
Здоровье: 21%
Сидеров: 1486 Личеров: 6814
Скорость раздачи: 0 байт/сек Скорость скачивания: 0 байт/сек
Последний сидер: 16 часов 31 секунду назад Последний личер: 16 часов 31 секунду назад
Для скачивания торрента необходимо зарегистрироваться или войти на трекер.
Показать сообщения за:  Поле сортировки  
Ответить на тему   [ 1 сообщение ] 

Кто сейчас на конференции

Сейчас этот форум просматривают: нет зарегистрированных пользователей и гости: 1


Вы не можете начинать темы
Вы не можете отвечать на сообщения
Вы не можете редактировать свои сообщения
Вы не можете удалять свои сообщения
Вы не можете добавлять вложения

Найти:
Перейти:  
cron
Создано на основе phpBB® Forum Software © phpBB Group
ppkBB3cker v.2.5 © 2008-2021 @ PPK | Icon Theme by Everaldo.com Design Studio
Designed by ST Software.
Русская поддержка phpBB
[ Time : 0.316s | 19 Queries | GZIP : Off ]
Ресурс не предоставляет электронные версии произведений, а занимается лишь коллекционированием и каталогизацией ссылок, присылаемых и публикуемых на форуме нашими читателями. Если вы являетесь правообладателем какого-либо представленного материала и не желаете чтобы ссылка на него находилась в нашем каталоге, свяжитесь с нами и мы незамедлительно удалим её. Файлы для обмена на трекере предоставлены пользователями сайта, и администрация не несёт ответственности за их содержание. Просьба не заливать файлы, защищенные авторскими правами, а также файлы нелегального содержания!
tracker_cron Яндекс.Метрика