Сообщения без ответов | Активные темы Текущее время: 2022-10-06 23:20



Ответить на тему  [ 1 сообщение ] 
Властелин колец: Кольца власти / The Lord of the Rings: The Rings of Power [01x01-04 из 08] (Уэйн Йип и др.) [2022, Фэнтези, боевик, драма, приключения, WEB-DLRip-AVC / HDRezka Studio] 
Автор Сообщение
Релизер
Релизер
Аватара пользователя
Раздал: 423.29 ГБ
Скачал: 12.18 ГБ
Ратио: 1033.841


Зарегистрирован: 2020-05-15 00:14
Сообщения: 1675
Ответить с цитатой 
#777

Властелин колец: Кольца власти / The Lord of the Rings: The Rings of Power
[01x01-04 из 08]


Информация о фильме
Название: Властелин колец: Кольца власти
Оригинальное название: The Lord of the Rings: The Rings of Power
Год выхода: 2022
Страна: США
Продолжительность: ~01:00:00 серия
Перевод: Профессиональный (многоголосый, закадровый) HDRezka Studio
Жанр: Фэнтези, боевик, драма, приключения

Режиссер: Уэйн Йип, Хуан Антонио Байона, Шарлотта Брандстром

В ролях: Роберт Арамайо, Назанин Бониади, Том Бадж, Морфидд Кларк, Исмаэль Круз-Кордова, Эма Хорват, Маркелла Кавенаг, Джозеф Моул, Дилан Смит, Тайро Мухафидин, Дэниел Уэйман, София Номвет, Меган Ричардс, Чарли Виккерс, Синтия Аддай-Роббинсон, Тристан Гравелл, Бенджамин Уокер, Питер Муллан, Август Прю, Чарльз Эдвардс, Ленни Генри, Саймон Мерреллс, Ллойд Оуэн, Суситха Джаясундера, Эмили Чайлд-Вильерс, Джофф Моррелл, Кип Чэпман, Сара Звангобани, Фабиан МакКаллум, Питер Тэйт, Вик Армстронг, Алекс Таррант, Леон Уодхэ и др.

О фильме:
Несмотря на то, что наступили времена относительного мира, герои вынуждены противостоять возрождению зла в Средиземье. Повсюду — от самых мрачных глубин Мглистых гор до величественных лесов Линдона, захватывающего дух островного королевства Нуменор и самых дальних уголков мира — в каждом королевстве герои событий создают наследие, которое будет жить еще долго после их ухода....



Файл
Кодек: MKV
Качество: WEB-DLRip-AVC
Видео: AVC, 1024x424 (2,40:1), 1800 kbps (0.173 b/px), 24.000 fps
Звук: AC3, 448 kbps (CBR), 48.0 KHz (16 bits), 6 ch, Russian
Субтитры:
Русские (Forced , Full)

РЕКЛАМЫ НЕТ

Общее
Уникальный идентификатор : 155795838136018969027884562832847567678 (0x75352FDE6D24852968ACFCBC1E907B3E)
Полное имя : D:фильмы и сериалыThe.Lord.of.the.Rings.The.Rings.of.Power.S01.WEB-DLRip-AVCThe.Lord.of.the.Rings.The.Rings.of.Power.S01E01.WEB-DLRip-AVC.TR.mkv
Формат : Matroska
Версия формата : Version 4
Размер файла : 1,03 Гбайт
Продолжительность : 1 ч. 5 м.
Общий поток : 2 250 Кбит/сек
Дата кодирования : UTC 2022-09-05 08:43:48
Программа кодирования : mkvmerge v35.0.0 ('All The Love In The World') 64-bit
Библиотека кодирования : libebml v1.3.9 + libmatroska v1.5.2

Видео
Идентификатор : 1
Формат : AVC
Формат/Информация : Advanced Video Codec
Профиль формата : High@L4.1
Настройки формата : CABAC / 9 Ref Frames
Параметр CABAC формата : Да
Параметр RefFrames формата : 9 кадров
Идентификатор кодека : V_MPEG4/ISO/AVC
Продолжительность : 1 ч. 5 м.
Битрейт : 1 800 Кбит/сек
Ширина : 1 024 пикселя
Высота : 424 пикселя
Соотношение сторон : 2,40:1
Режим частоты кадров : Постоянный
Частота кадров : 24,000 кадра/сек
Цветовое пространство : YUV
Субдискретизация насыщенности : 4:2:0
Битовая глубина : 8 бит
Тип развёртки : Прогрессивная
Бит/(Пиксели*Кадры) : 0.173
Размер потока : 847 Мбайт (80%)
Заголовок : TRIAX2009
Библиотека кодирования : x264 core 146 r2538 121396c
Настройки программы : cabac=1 / ref=9 / deblock=1:-2:-1 / analyse=0x3:0x113 / me=umh / subme=10 / psy=1 / psy_rd=1.00:0.15 / mixed_ref=1 / me_range=32 / chroma_me=1 / trellis=2 / 8x8dct=1 / cqm=0 / deadzone=21,11 / fast_pskip=0 / chroma_qp_offset=-3 / threads=30 / lookahead_threads=3 / sliced_threads=0 / nr=0 / decimate=1 / interlaced=0 / bluray_compat=0 / constrained_intra=0 / bframes=8 / b_pyramid=2 / b_adapt=2 / b_bias=0 / direct=3 / weightb=1 / open_gop=0 / weightp=2 / keyint=240 / keyint_min=24 / scenecut=40 / intra_refresh=0 / rc_lookahead=40 / rc=2pass / mbtree=0 / bitrate=1800 / ratetol=1.0 / qcomp=0.60 / qpmin=0 / qpmax=69 / qpstep=4 / cplxblur=20.0 / qblur=0.5 / vbv_maxrate=14000 / vbv_bufsize=14000 / nal_hrd=none / filler=0 / ip_ratio=1.40 / pb_ratio=1.30 / aq=1:1.00
Default : Да
Forced : Нет

Аудио
Идентификатор : 2
Формат : AC-3
Формат/Информация : Audio Coding 3
Коммерческое название : Dolby Digital
Идентификатор кодека : A_AC3
Продолжительность : 1 ч. 5 м.
Вид битрейта : Постоянный
Битрейт : 448 Кбит/сек
Каналы : 6 каналов
Channel layout : L R C LFE Ls Rs
Частота : 48,0 КГц
Частота кадров : 31,250 кадров/сек (1536 SPF)
Метод сжатия : С потерями
Размер потока : 211 Мбайт (20%)
Заголовок : Профессиональный (многоголосый, закадровый) HDRezka Studio
Язык : Russian
Service kind : Complete Main
Default : Да
Forced : Нет

Текст #1
Идентификатор : 3
Формат : UTF-8
Идентификатор кодека : S_TEXT/UTF8
Идентификатор кодека/Информация : UTF-8 Plain Text
Продолжительность : 54 м. 52 с.
Битрейт : 1 бит/сек
Count of elements : 17
Размер потока : 701 байт (0%)
Заголовок : Forc
Язык : Russian
Default : Да
Forced : Нет

Текст #2
Идентификатор : 4
Формат : UTF-8
Идентификатор кодека : S_TEXT/UTF8
Идентификатор кодека/Информация : UTF-8 Plain Text
Продолжительность : 1 ч. 2 м.
Битрейт : 70 бит/сек
Count of elements : 632
Размер потока : 32,1 Кбайт (0%)
Заголовок : Rus
Язык : Russian
Default : Нет
Forced : Нет

Когда раздача ведётся путём добавления новых серий, при каждом добавлении создётся новый торрент. Чтобы начать докачку новой серии, пользователям необходимо сделать следующее:
(1) остановить скачивание,
(2) удалить старый торрент у себя из клиента (старые серии удалять не надо),
(3) скачать новый торрент и запустить его у себя в клиенте вместо старого, при этом указать клиенту путь в старую папку, куда и должно происходить скачивание новых серий.
Ваш клиент при этом должен произвести хеширование (проверку) старой папки (если не производит сам - помогите ему сделать это), и будет докачивать только те серии, которых у вас ещё нет. Старые серии при этом не удаляются, а продолжают раздаваться!
Eсли вы уже удалили старые серии, то предотвратить повторную закачку старых серий можно, отжав галочку в соответствующих местах при запуске нового торрента. По возможности, желательно не удалять старые серии как можно дольше, чтобы релизер не столько продолжал раздавать старые серии, а смог сконцентрироваться на новых.


2022-09-23 03:07
Профиль
  • Торрент
Автор: Zebra Хэш: ---
Добавлен: 2022-09-23 03:07 Приватный: Нет (DHT включён)
Статус: Проверен
Размер: 4.3 ГБ (4 621 034 786 байт)
Изменил:
---
Скачали: 2093 (Раздающих: 0%)
Причина:
---
Здоровье: 88%
Сидеров: 257 Личеров: 291
Скорость раздачи: 0 байт/сек Скорость скачивания: 0 байт/сек
Последний сидер: 56 минут 11 секунд назад Последний личер: 56 минут 11 секунд назад
Для скачивания торрента необходимо зарегистрироваться или войти на трекер.
Показать сообщения за:  Поле сортировки  
Ответить на тему   [ 1 сообщение ] 

Кто сейчас на конференции

Сейчас этот форум просматривают: нет зарегистрированных пользователей и гости: 1


Вы не можете начинать темы
Вы не можете отвечать на сообщения
Вы не можете редактировать свои сообщения
Вы не можете удалять свои сообщения
Вы не можете добавлять вложения

Найти:
Перейти:  
Создано на основе phpBB® Forum Software © phpBB Group
ppkBB3cker v.2.5 © 2008-2021 @ PPK | Icon Theme by Everaldo.com Design Studio
Designed by ST Software.
Русская поддержка phpBB
[ Time : 0.242s | 18 Queries | GZIP : Off ]
Ресурс не предоставляет электронные версии произведений, а занимается лишь коллекционированием и каталогизацией ссылок, присылаемых и публикуемых на форуме нашими читателями. Если вы являетесь правообладателем какого-либо представленного материала и не желаете чтобы ссылка на него находилась в нашем каталоге, свяжитесь с нами и мы незамедлительно удалим её. Файлы для обмена на трекере предоставлены пользователями сайта, и администрация не несёт ответственности за их содержание. Просьба не заливать файлы, защищенные авторскими правами, а также файлы нелегального содержания!
tracker_cron Яндекс.Метрика