Сообщения без ответов | Активные темы Текущее время: 2022-10-06 23:04



Ответить на тему  [ 1 сообщение ] 
Затерянные в космосе / Lost in Space [S01-03] (Тим Соутэм и др.) [2018-2021, фантастика, драма, детектив, приключения, семейный, WEB-DL 720p / Пифагор] 
Автор Сообщение
Релизер
Релизер
Аватара пользователя
Раздал: 423.29 ГБ
Скачал: 12.18 ГБ
Ратио: 1033.841


Зарегистрирован: 2020-05-15 00:14
Сообщения: 1675
Ответить с цитатой 
#777

Затерянные в космосе / Lost in Space
[S01-03]


Информация о фильме
Название: Затерянные в космосе
Оригинальное название: Lost in Space
Год выхода: 2018-2021
Страна: США
Продолжительность: ~ 01:00:00 серия
Перевод: Профессиональный (дублированный) Пифагор по заказу Netflix
Жанр: фантастика, драма, детектив, приключения, семейный

Режиссер: Тим Соутэм, Дебора Чоу, Стивен Серджик

В ролях: Молли Паркер, Тоби Стивенс, Макс Дженкинс, Тейлор Расселл, Мина Сандвол, Игнасио Серричио, Паркер Поузи, Брайан Стил, Раза Джеффри, Аджай Парих-Фризе, Сибонгиле Мламбо, Шон Паркес, Джей Джей Филд, Кэри-Хироюки Тагава, Дуглас Ходж, Кики Сукэдзанэ, Сэлма Блэр...

О фильме:
2046 год. Космический корабль теряется в космосе и терпит крушение на планете на расстоянии нескольких световых лет от планируемого места назначения. Его обитатели, семья Робинсонов, вынуждены приспособиться и выжить в новых условиях....



Файл
Кодек: MKV
Качество: WEB-DL 720p
Видео: AVC, 1280x720 (16:9), 1 592 - 2 150 kbps (0.089 b/px), 23.976 fps
Звук:
Аудио #1: E-AC3, 640 kbps (CBR), 48.0 KHz, 6 ch, Russian
Аудио #2: E-AC3, 768 kbps (CBR), 48.0 KHz, 6 ch, English
Субтитры:
Russian (Forced, Full), English
РЕКЛАМЫ НЕТ
Общее
Уникальный идентификатор : 18659072018733350387608104668838972101 (0xE099B4717AEE954EE9B6E842C534AC5)
Полное имя : D:фильмы и сериалыLost.in.Space.s01-s03.(2018-2021).WEB-DL (720p)Lost.in.Space.2018.S01Lost.in.Space.2018.S01E01.Impact.720p.mkv
Формат : Matroska
Версия формата : Version 4
Размер файла : 1,47 Гбайт
Продолжительность : 1 ч. 3 м.
Режим общего битрейта : Переменный
Общий поток : 3 301 Кбит/сек
Название фильма : Lost.in.Space.2018.S01E01
Дата кодирования : UTC 2021-12-02 12:04:48
Программа кодирования : mkvmerge v35.0.0 ('All The Love In The World') 64-bit
Библиотека кодирования : libebml v1.3.9 + libmatroska v1.5.2

Видео
Идентификатор : 1
Формат : AVC
Формат/Информация : Advanced Video Codec
Профиль формата : Main@L3.1
Настройки формата : CABAC / 3 Ref Frames
Параметр CABAC формата : Да
Параметр RefFrames формата : 3 кадра
Идентификатор кодека : V_MPEG4/ISO/AVC
Продолжительность : 1 ч. 3 м.
Вид битрейта : Переменный
Битрейт : 1 960 Кбит/сек
Максимальный битрейт : 2 940 Кбит/сек
Ширина : 1 280 пикселей
Высота : 720 пикселей
Соотношение сторон : 16:9
Режим частоты кадров : Постоянный
Частота кадров : 23,976 (24000/1001) кадра/сек
Цветовое пространство : YUV
Субдискретизация насыщенности : 4:2:0
Битовая глубина : 8 бит
Тип развёртки : Прогрессивная
Бит/(Пиксели*Кадры) : 0.089
Размер потока : 863 Мбайт (57%)
Библиотека кодирования : x264 core 148 r2715 7e75228
Настройки программы : cabac=1 / ref=3 / deblock=1:0:0 / analyse=0x1:0x111 / me=umh / subme=10 / psy=1 / psy_rd=1.00:0.00 / mixed_ref=1 / me_range=24 / chroma_me=1 / trellis=2 / 8x8dct=0 / cqm=0 / deadzone=21,11 / fast_pskip=1 / chroma_qp_offset=-2 / threads=8 / lookahead_threads=1 / sliced_threads=0 / nr=0 / decimate=1 / interlaced=0 / bluray_compat=0 / stitchable=1 / constrained_intra=0 / bframes=2 / b_pyramid=0 / b_adapt=2 / b_bias=0 / direct=3 / weightb=1 / open_gop=0 / weightp=2 / keyint=48 / keyint_min=25 / scenecut=0 / intra_refresh=0 / rc_lookahead=48 / rc=2pass / mbtree=1 / bitrate=1960 / ratetol=1.0 / qcomp=0.50 / qpmin=6 / qpmax=51 / qpstep=4 / cplxblur=20.0 / qblur=0.5 / vbv_maxrate=2940 / vbv_bufsize=3920 / nal_hrd=vbr / filler=0 / ip_ratio=1.40 / aq=1:1.00
Default : Да
Forced : Нет

Аудио #1
Идентификатор : 2
Формат : E-AC-3
Формат/Информация : Enhanced AC-3
Коммерческое название : Dolby Digital Plus
Идентификатор кодека : A_EAC3
Продолжительность : 1 ч. 3 м.
Вид битрейта : Постоянный
Битрейт : 640 Кбит/сек
Каналы : 6 каналов
Channel layout : L R C LFE Ls Rs
Частота : 48,0 КГц
Частота кадров : 31,250 кадров/сек (1536 SPF)
Метод сжатия : С потерями
Размер потока : 292 Мбайт (19%)
Язык : Russian
Service kind : Complete Main
Default : Да
Forced : Нет

Аудио #2
Идентификатор : 3
Формат : E-AC-3 JOC
Формат/Информация : Enhanced AC-3 with Joint Object Coding
Коммерческое название : Dolby Digital Plus with Dolby Atmos
Идентификатор кодека : A_EAC3
Продолжительность : 1 ч. 3 м.
Вид битрейта : Постоянный
Битрейт : 768 Кбит/сек
Каналы : 6 каналов
Channel layout : L R C LFE Ls Rs
Частота : 48,0 КГц
Частота кадров : 31,250 кадров/сек (1536 SPF)
Метод сжатия : С потерями
Размер потока : 350 Мбайт (23%)
Язык : English
Service kind : Complete Main
Default : Нет
Forced : Нет
Complexity index : 16
Number of dynamic objects : 15
Bed channel count : 1 канал
Bed channel configuration : LFE

Текст #1
Идентификатор : 4
Формат : UTF-8
Идентификатор кодека : S_TEXT/UTF8
Идентификатор кодека/Информация : UTF-8 Plain Text
Продолжительность : 1 ч. 2 м.
Битрейт : 3 бит/сек
Count of elements : 31
Размер потока : 1,37 Кбайт (0%)
Заголовок : Forced
Язык : Russian
Default : Да
Forced : Нет

Текст #2
Идентификатор : 5
Формат : UTF-8
Идентификатор кодека : S_TEXT/UTF8
Идентификатор кодека/Информация : UTF-8 Plain Text
Продолжительность : 1 ч. 2 м.
Битрейт : 65 бит/сек
Count of elements : 535
Размер потока : 30,1 Кбайт (0%)
Заголовок : Russian
Язык : Russian
Default : Нет
Forced : Нет

Текст #3
Идентификатор : 6
Формат : UTF-8
Идентификатор кодека : S_TEXT/UTF8
Идентификатор кодека/Информация : UTF-8 Plain Text
Продолжительность : 1 ч. 0 м.
Битрейт : 54 бит/сек
Count of elements : 805
Размер потока : 24,3 Кбайт (0%)
Заголовок : SDH
Язык : English
Default : Нет
Forced : Нет


2022-09-21 03:35
Профиль
  • Торрент
Автор: Zebra Хэш: ---
Добавлен: 2022-09-21 03:35 Приватный: Нет (DHT включён)
Статус: Проверен
Размер: 31.16 ГБ (33 459 758 490 байт)
Изменил:
---
Скачали: 757 (Раздающих: 0%)
Причина:
---
Здоровье: 100%
Сидеров: 71 Личеров: 43
Скорость раздачи: 0 байт/сек Скорость скачивания: 0 байт/сек
Последний сидер: 9 часов 16 минут 42 секунды назад Последний личер: 9 часов 16 минут 42 секунды назад
Для скачивания торрента необходимо зарегистрироваться или войти на трекер.
Показать сообщения за:  Поле сортировки  
Ответить на тему   [ 1 сообщение ] 

Кто сейчас на конференции

Сейчас этот форум просматривают: нет зарегистрированных пользователей и гости: 1


Вы не можете начинать темы
Вы не можете отвечать на сообщения
Вы не можете редактировать свои сообщения
Вы не можете удалять свои сообщения
Вы не можете добавлять вложения

Найти:
Перейти:  
Создано на основе phpBB® Forum Software © phpBB Group
ppkBB3cker v.2.5 © 2008-2021 @ PPK | Icon Theme by Everaldo.com Design Studio
Designed by ST Software.
Русская поддержка phpBB
[ Time : 0.314s | 18 Queries | GZIP : Off ]
Ресурс не предоставляет электронные версии произведений, а занимается лишь коллекционированием и каталогизацией ссылок, присылаемых и публикуемых на форуме нашими читателями. Если вы являетесь правообладателем какого-либо представленного материала и не желаете чтобы ссылка на него находилась в нашем каталоге, свяжитесь с нами и мы незамедлительно удалим её. Файлы для обмена на трекере предоставлены пользователями сайта, и администрация не несёт ответственности за их содержание. Просьба не заливать файлы, защищенные авторскими правами, а также файлы нелегального содержания!
tracker_cron Яндекс.Метрика