Сообщения без ответов | Активные темы Текущее время: 2022-05-17 00:37



Ответить на тему  [ 1 сообщение ] 
Формула 1 / Сезон 2012 / Этап 15 / Гран-При Японии / 05-07.10.2012 / 1-я, 2-я и 3-я практика, квалификация, гонка / Спорт 1 HD [2012, 1080i, Ф1, DVB-S2 Remux, AVC, RU] 
Автор Сообщение
Релизер
Релизер
Раздал: 157 ГБ
Скачал: 4 ГБ
Ратио: 39.250


Зарегистрирован: 2013-08-21 19:15
Сообщения: 48356
Ответить с цитатой 
Формула 1 / Сезон 2012 / Этап 15 / Гран-При Японии / 05-07.10.12 / 1-я, 2-я и 3-я практика, квалификация, гонка

#777
Вид спорта: Формула 1
Дата/Год выпуска: 05-07.10.2012
Язык комментариев: Русский
Комментарий первой практики: К. Курочкин
Комментарий второй практики: А.Попов и Н. Фабричнова
Комментарий третьей практики: К. Курочкин
Комментарий квалификации: А.Попов и Н. Фабричнова
Комментарий гонки: А.Попов и Н. Фабричнова

Автор записи: SashaR.

Качество: DVB-S2 Remux
Формат видео: TS
Видео: AVC, 1920x1080, 16:9, 14.2 Mbps, 25 fps
Аудио: MP2, 192 Kbps, 48 kHz, 2 channels

Канал:
#777



D:\F1.Гран При Японии 2012 ( HD)\F1.Гран При Японии 2012. Первая практика.ts
General #6
ID : 6 (0x6)
Complete name : D:\F1.Гран При Японии 2012 ( HD)\F1.Гран При Японии 2012. Первая практика.ts
Format : MPEG-TS
File size : 10.3 GiB
Duration : 1h 37mn
Overall bit rate : 15.2 Mbps
Video #303
ID : 303 (0x12F)
Menu ID : 20103 (0x4E87)
Format : AVC
Format/Info : Advanced Video Codec
Format profile : High@L4.0
Format settings, CABAC : Yes
Format settings, ReFrames : 3 frames
Codec ID : 27
Duration : 1h 37mn
Bit rate : 14.2 Mbps
Width : 1 920 pixels
Height : 1 080 pixels
Display aspect ratio : 16:9
Frame rate : 25.000 fps
Standard : Component
Color space : YUV
Chroma subsampling : 4:2:0
Bit depth : 8 bits
Scan type : Interlaced
Scan order : Top Field First
Bits/(Pixel*Frame) : 0.275
Stream size : 9.70 GiB (94%)
Color primaries : BT.709-5, BT.1361, IEC 61966-2-4, SMPTE RP177
Transfer characteristics : BT.709-5, BT.1361
Matrix coefficients : BT.709-5, BT.1361, IEC 61966-2-4 709, SMPTE RP177
Audio #403
ID : 403 (0x193)
Menu ID : 20103 (0x4E87)
Format : MPEG Audio
Format version : Version 1
Format profile : Layer 2
Codec ID : 4
Duration : 1h 37mn
Bit rate mode : Constant
Bit rate : 192 Kbps
Channel(s) : 2 channels
Sampling rate : 48.0 KHz
Compression mode : Lossy
Delay relative to video : 96ms
Stream size : 134 MiB (1%)
Language : Russian



Первая практика - 01:38:00
Вторая практика - 01:35:50
Третья практика - 01:09:31
Квалификация - 01:18:31
Гонка - 02:23:08










































































2014-01-15 23:10
Профиль
  • Торрент
Автор: virus Хэш: ---
Добавлен: 2014-01-15 23:10 Приватный: Нет (DHT включён)
Статус:
---
Размер: 51.29 ГБ (55 069 413 456 байт)
Изменил:
---
Скачали: 0 (Раздающих: 0%)
Причина:
---
Здоровье: 0%
Сидеров: 0 Личеров: 0
Скорость раздачи: 0 байт/сек Скорость скачивания: 0 байт/сек
Последний сидер: Нет Последний личер: Нет
Для скачивания торрента необходимо зарегистрироваться или войти на трекер.
Показать сообщения за:  Поле сортировки  
Ответить на тему   [ 1 сообщение ] 

Кто сейчас на конференции

Сейчас этот форум просматривают: нет зарегистрированных пользователей и гости: 1


Вы не можете начинать темы
Вы не можете отвечать на сообщения
Вы не можете редактировать свои сообщения
Вы не можете удалять свои сообщения
Вы не можете добавлять вложения

Найти:
Перейти:  
Создано на основе phpBB® Forum Software © phpBB Group
ppkBB3cker v.2.5 © 2008-2021 @ PPK | Icon Theme by Everaldo.com Design Studio
Designed by ST Software.
Русская поддержка phpBB
[ Time : 0.184s | 20 Queries | GZIP : Off ]
Ресурс не предоставляет электронные версии произведений, а занимается лишь коллекционированием и каталогизацией ссылок, присылаемых и публикуемых на форуме нашими читателями. Если вы являетесь правообладателем какого-либо представленного материала и не желаете чтобы ссылка на него находилась в нашем каталоге, свяжитесь с нами и мы незамедлительно удалим её. Файлы для обмена на трекере предоставлены пользователями сайта, и администрация не несёт ответственности за их содержание. Просьба не заливать файлы, защищенные авторскими правами, а также файлы нелегального содержания!
tracker_cron Яндекс.Метрика