Сообщения без ответов | Активные темы Текущее время: 2022-05-17 00:03



Ответить на тему  [ 1 сообщение ] 
2013 Asian Championships. Busan (Корея) / Личные финалы [7.07.2013 г., Настольный теннис, HDTVRip, H264, MKV/720p] 
Автор Сообщение
Релизер
Релизер
Раздал: 157 ГБ
Скачал: 4 ГБ
Ратио: 39.250


Зарегистрирован: 2013-08-21 19:15
Сообщения: 48356
Ответить с цитатой 
#777
2013 Asian Championships. Busan (Корея) / Личные финалы

Год выпуска: 07.07.2013
Вид спорта: Настольный теннис
Комментарий: Профессиональный
Язык комментариев: Китайский
Описание: Личные финалы на 21-м чемпионате Азии по настольному теннису 2013 года.


Автор рипа: sanchez2011 (первоисточник - patrick7531.blogspot)
Качество: HDTVRip
Формат: MKV
Видео кодек: AVC
Аудио кодек: MP3
Видео: MPEG4 Video (H264) 1280x720 (16:9) 25fps 2585kbps
Аудио: MPEG Audio Layer 3 48000Hz stereo 128kbps







GeneralUnique ID : 179386060642857817396954282719518810403 (0x86F47FA2EC91B2E7827D5DDF04866123)Complete name : C:\Users\admin\Desktop\2013 Asian Championships\MS F Ma Long CHN - Yan An CHN.mkvFormat : MatroskaFormat version : Version 4 / Version 2File size : 706 MiBDuration : 35mn 39sOverall bit rate : 2 768 KbpsEncoded date : UTC 2013-12-12 17:16:29Writing application : mkvmerge v6.5.0 ('Isn't she lovely') built on Oct 20 2013 12:50:05Writing library : XviD4PSP 6.0 / 53.6.0

VideoID : 1Format : AVCFormat/Info : Advanced Video CodecFormat profile : High@L4.1Format settings, CABAC : YesFormat settings, ReFrames : 3 framesCodec ID : V_MPEG4/ISO/AVCDuration : 35mn 39sBit rate : 2 585 KbpsWidth : 1 280 pixelsHeight : 720 pixelsDisplay aspect ratio : 16:9Frame rate mode : ConstantFrame rate : 25.000 fpsColor space : YUVChroma subsampling : 4:2:0Bit depth : 8 bitsScan type : ProgressiveBits/(Pixel*Frame) : 0.112Stream size : 659 MiB (93%)Writing library : x264 core 116 r2019M 9cc407dEncoding settings : cabac=1 / ref=3 / deblock=1:0:0 / analyse=0x3:0x133 / me=hex / subme=7 / psy=1 / psy_rd=1.00:0.20 / mixed_ref=1 / me_range=16 / chroma_me=1 / trellis=1 / 8x8dct=1 / cqm=0 / deadzone=21,11 / fast_pskip=1 / chroma_qp_offset=-3 / threads=8 / sliced_threads=0 / nr=0 / decimate=1 / interlaced=0 / bluray_compat=0 / constrained_intra=0 / bframes=3 / b_pyramid=1 / b_adapt=2 / b_bias=0 / direct=3 / weightb=1 / open_gop=0 / weightp=2 / keyint=250 / keyint_min=25 / scenecut=40 / intra_refresh=0 / rc_lookahead=40 / rc=crf / mbtree=1 / crf=21.0 / qcomp=0.60 / qpmin=10 / qpmax=51 / qpstep=4 / ip_ratio=1.40 / aq=1:1.00Default : YesForced : No

AudioID : 2Format : MPEG AudioFormat version : Version 1Format profile : Layer 3Mode : Joint stereoMode extension : MS StereoCodec ID : A_MPEG/L3Codec ID/Hint : MP3Duration : 35mn 39sBit rate mode : ConstantBit rate : 128 KbpsChannel(s) : 2 channelsSampling rate : 48.0 KHzCompression mode : LossyDelay relative to video : 20msStream size : 32.7 MiB (5%)Writing library : LAME3.98.2Default : YesForced : No




Мужской финал:
Ma Long CHN vs Yan An CHN

Женский финал:
Liu Shiwen CHN vs Ding Ning CHN



Общая продолжительность: 01:29:28
Мужской финал:
Ma Long CHN vs Yan An CHN (00:35:39)
(4-0) 11:5, 11:9, 12:10, 11:9

Женский финал:
Liu Shiwen CHN vs Ding Ning CHN (00:53:49)
(4-2) 9:11, 15:13, 9:11, 11:8, 11:1, 11:5


2013-12-20 23:33
Профиль
  • Торрент
Автор: virus Хэш: ---
Добавлен: 2013-12-20 23:03 Приватный: Нет (DHT включён)
Статус:
---
Размер: 1.71 ГБ (1 834 269 376 байт)
Изменил:
---
Скачали: 0 (Раздающих: 0%)
Причина:
---
Здоровье: 0%
Сидеров: 0 Личеров: 0
Скорость раздачи: 0 байт/сек Скорость скачивания: 0 байт/сек
Последний сидер: Нет Последний личер: Нет
Для скачивания торрента необходимо зарегистрироваться или войти на трекер.
Показать сообщения за:  Поле сортировки  
Ответить на тему   [ 1 сообщение ] 

Кто сейчас на конференции

Сейчас этот форум просматривают: нет зарегистрированных пользователей и гости: 1


Вы не можете начинать темы
Вы не можете отвечать на сообщения
Вы не можете редактировать свои сообщения
Вы не можете удалять свои сообщения
Вы не можете добавлять вложения

Найти:
Перейти:  
Создано на основе phpBB® Forum Software © phpBB Group
ppkBB3cker v.2.5 © 2008-2021 @ PPK | Icon Theme by Everaldo.com Design Studio
Designed by ST Software.
Русская поддержка phpBB
[ Time : 0.180s | 18 Queries | GZIP : Off ]
Ресурс не предоставляет электронные версии произведений, а занимается лишь коллекционированием и каталогизацией ссылок, присылаемых и публикуемых на форуме нашими читателями. Если вы являетесь правообладателем какого-либо представленного материала и не желаете чтобы ссылка на него находилась в нашем каталоге, свяжитесь с нами и мы незамедлительно удалим её. Файлы для обмена на трекере предоставлены пользователями сайта, и администрация не несёт ответственности за их содержание. Просьба не заливать файлы, защищенные авторскими правами, а также файлы нелегального содержания!
tracker_cron Яндекс.Метрика