Сообщения без ответов | Активные темы Текущее время: 2022-05-17 00:20



Ответить на тему  [ 1 сообщение ] 
"Легенда" братьев Запашных (Аскольд и Эдгар Запашные) [2011, цирк, DVDRip] 
Автор Сообщение
Релизер
Релизер
Раздал: 157 ГБ
Скачал: 4 ГБ
Ратио: 39.250


Зарегистрирован: 2013-08-21 19:15
Сообщения: 48356
Ответить с цитатой 
"Легенда" братьев Запашных
Год выпуска: 2011
Страна: Россия
Жанр: цирк
Продолжительность: 01:45:26
Перевод: Отсутствует
Русские субтитры: нет

Режиссер: Аскольд и Эдгар Запашные

Описание: Впервые в истории российского шоу-бизнеса альянс цирковых звёзд первой величины братьев Запашных и братьев Сафроновых представляет совместный проект "Легенда".
Беспрецедентное зрелище,не имеющее аналогов в мировой индустрии развлечений,объединит в себе всю силу и ресурсы "Цирка братьев Запашных" с фантастическими возможностями лучших отечественных иллюзионистов.
Доп. информация: Рип с этого релиза

Сэмпл

качество: DVDRip
формат: MP4
Видео: MPEG4 Video (H264) 704x400 25fps 1499kbps
Аудио: AAC 48000Hz stereo 128kbps




GeneralComplete name : E:\Цирк\Legenda.mp4Format : MPEG-4Format profile : Base MediaCodec ID : isomFile size : 1.20 GiBDuration : 1h 45mnOverall bit rate mode : VariableOverall bit rate : 1 632 KbpsEncoded date : UTC 2014-02-02 22:29:30Tagged date : UTC 2014-02-02 22:29:30

VideoID : 1Format : AVCFormat/Info : Advanced Video CodecFormat profile : High@L3.1Format settings, CABAC : YesFormat settings, ReFrames : 8 framesCodec ID : avc1Codec ID/Info : Advanced Video CodingDuration : 1h 45mnBit rate : 1 500 KbpsMaximum bit rate : 5 826 KbpsWidth : 704 pixelsHeight : 400 pixelsDisplay aspect ratio : 16:9Frame rate mode : ConstantFrame rate : 25.000 fpsColor space : YUVChroma subsampling : 4:2:0Bit depth : 8 bitsScan type : ProgressiveBits/(Pixel*Frame) : 0.213Stream size : 1.10 GiB (92%)Writing library : x264 core 130 r2273 b3065e6Encoding settings : cabac=1 / ref=8 / deblock=1:-1:-1 / analyse=0x3:0x133 / me=umh / subme=9 / psy=1 / psy_rd=1.00:0.10 / mixed_ref=1 / me_range=30 / chroma_me=1 / trellis=2 / 8x8dct=1 / cqm=0 / deadzone=21,11 / fast_pskip=0 / chroma_qp_offset=-3 / threads=6 / lookahead_threads=1 / sliced_threads=0 / nr=0 / decimate=1 / interlaced=0 / bluray_compat=0 / constrained_intra=0 / bframes=3 / b_pyramid=2 / b_adapt=2 / b_bias=0 / direct=3 / weightb=1 / open_gop=0 / weightp=2 / keyint=250 / keyint_min=25 / scenecut=40 / intra_refresh=0 / rc_lookahead=50 / rc=2pass / mbtree=1 / bitrate=1500 / ratetol=1.0 / qcomp=0.60 / qpmin=0 / qpmax=69 / qpstep=4 / cplxblur=20.0 / qblur=0.5 / ip_ratio=1.40 / aq=1:1.00Encoded date : UTC 2014-02-02 22:29:30Tagged date : UTC 2014-02-02 22:30:02

AudioID : 2Format : AACFormat/Info : Advanced Audio CodecFormat profile : LCCodec ID : 40Duration : 1h 45mnBit rate mode : VariableBit rate : 128 KbpsMaximum bit rate : 145 KbpsChannel(s) : 2 channelsChannel positions : Front: L RSampling rate : 48.0 KHzCompression mode : LossyDelay relative to video : -3s 333msStream size : 96.5 MiB (8%)Encoded date : UTC 2014-02-02 22:29:58Tagged date : UTC 2014-02-02 22:30:02







2014-02-04 15:00
Профиль
  • Торрент
Автор: virus Хэш: ---
Добавлен: 2014-02-04 15:00 Приватный: Нет (DHT включён)
Статус:
---
Размер: 1.2 ГБ (1 290 563 734 байт)
Изменил:
---
Скачали: 0 (Раздающих: 0%)
Причина:
---
Здоровье: 0%
Сидеров: 0 Личеров: 0
Скорость раздачи: 0 байт/сек Скорость скачивания: 0 байт/сек
Последний сидер: Нет Последний личер: Нет
Для скачивания торрента необходимо зарегистрироваться или войти на трекер.
Показать сообщения за:  Поле сортировки  
Ответить на тему   [ 1 сообщение ] 

Кто сейчас на конференции

Сейчас этот форум просматривают: нет зарегистрированных пользователей и гости: 1


Вы не можете начинать темы
Вы не можете отвечать на сообщения
Вы не можете редактировать свои сообщения
Вы не можете удалять свои сообщения
Вы не можете добавлять вложения

Найти:
Перейти:  
Создано на основе phpBB® Forum Software © phpBB Group
ppkBB3cker v.2.5 © 2008-2021 @ PPK | Icon Theme by Everaldo.com Design Studio
Designed by ST Software.
Русская поддержка phpBB
[ Time : 0.183s | 20 Queries | GZIP : Off ]
Ресурс не предоставляет электронные версии произведений, а занимается лишь коллекционированием и каталогизацией ссылок, присылаемых и публикуемых на форуме нашими читателями. Если вы являетесь правообладателем какого-либо представленного материала и не желаете чтобы ссылка на него находилась в нашем каталоге, свяжитесь с нами и мы незамедлительно удалим её. Файлы для обмена на трекере предоставлены пользователями сайта, и администрация не несёт ответственности за их содержание. Просьба не заливать файлы, защищенные авторскими правами, а также файлы нелегального содержания!
tracker_cron Яндекс.Метрика