Сообщения без ответов | Активные темы Текущее время: 2022-05-16 23:58



Ответить на тему  [ 1 сообщение ] 
Острова (Николай Кольцов. Загадка жизни) (Ирина Изволова) [2021, Документальный, наука, познавательный, IPTVRip] 
Автор Сообщение
В сети
Почетный пользователь
Почетный пользователь
Аватара пользователя
Раздал: 271.11 ГБ
Скачал: 9.82 ГБ
Ратио: 1026.606


Зарегистрирован: 2020-08-03 09:00
Сообщения: 1112
Ответить с цитатой 
#777

Острова
(Николай Кольцов. Загадка жизни)


Дата/Год выпуска: 2021
Страна: Россия, ООО "Точка зрения"
Продолжительность: 00:51:32
Перевод: Не требуется
Жанр: Документальный, наука, познавательный

Режиссер: Ирина Изволова

Описание:
Кажется, что в ХХ веке ни одно великое открытие в биологии ни обошлось без участия этого человека или его учеников, но его положение в истории отечественной науки многие десятилетия остается странным, противоречивым и не соответствующим его вкладу в современное миропонимание. Н.К. Кольцов умер в 1940-м во время командировки в Ленинград на пике беспрецедентной травли, которой его лично, его Институт экспериментальной биологии и отечественную генетику в целом подвергли тогда в печати и на множестве научных, партийных и общественных собраний. Его уничтожали сознательно и последовательно и в этом участвовали не только приверженцы академика Т.Д. Лысенко, но и близкие к Кольцову люди многим ему обязанные. Последнее, что он сказал перед смертью: "Я хочу, я мечтаю, чтобы все проснулись". С тех пор прошло 80 лет, но этот страшный сон еще до конца так и не развеялся. Многое еще осталось непроясненным и недосказанным… В фильме участвуют: А.В. Васильев, директор Института биологии развития имени Н.К. Кольцова, а также историки науки Евгений Раменский и Татьяна Авруцкая.

качество: IPTVRip
формат: AVI
Видео: 720x400 (1.80:1), 25 fps, XviD build 73 ~1699 kbps avg, 0.24 bit/pixel
Аудио: 48 kHz, MPEG Layer 3, 2 ch, ~128.00 kbps avg
Русские субтитры: нет
Код:
Полное имя                               : D:\gotov\Острова.Н.Кольцов.2021.IPTVRip.avi
Формат                                   : AVI
Формат/Информация                        : Audio Video Interleave
Размер файла                             : 677 Мбайт
Продолжительность                        : 51 м. 32 с.
Общий поток                              : 1838 Кбит/сек
Программа кодирования                    : VirtualDubMod 1.5.10.3 | www.virtualdub-fr.org || (build 2550/release)
Библиотека кодирования                   : VirtualDubMod build 2550/release
Видео
Идентификатор                            : 0
Формат                                   : MPEG-4 Visual
Профиль формата                          : Advanced Simple@L5
Параметр BVOP формата                    : 2
Параметр QPel формата                    : Нет
Параметр GMC формата                     : Без точки перехода
Параметр матрицы формата                 : Default (H.263)
Идентификатор кодека                     : XVID
Идентификатор кодека/Подсказка           : XviD
Продолжительность                        : 51 м. 32 с.
Битрейт                                  : 1700 Кбит/сек
Ширина                                   : 720 пикселей
Высота                                   : 400 пикселей
Соотношение сторон                       : 16:9
Частота кадров                           : 25,000 кадров/сек
Цветовое пространство                    : YUV
Субдискретизация насыщенности            : 4:2:0
Битовая глубина                          : 8 бит
Тип развёртки                            : Прогрессивная
Метод сжатия                             : С потерями
Бит/(Пиксели*Кадры)                      : 0.236
Размер потока                            : 627 Мбайт (93%)
Библиотека кодирования                   : XviD 73
Аудио
Идентификатор                            : 1
Формат                                   : MPEG Audio
Версия формата                           : Version 1
Профиль формата                          : Layer 3
Идентификатор кодека                     : 55
Идентификатор кодека/Подсказка           : MP3
Продолжительность                        : 51 м. 32 с.
Вид битрейта                             : Постоянный
Битрейт                                  : 128 Кбит/сек
Каналы                                   : 2 канала
Частота                                  : 48,0 КГц
Метод сжатия                             : С потерями
Размер потока                            : 47,2 Мбайт (7%)
Выравнивание                             : Соединение по промежуткам
Продолжительность промежутка             : 40  мс. (1,00 видеокадр)
Время предзагрузки промежутка            : 504  мс.
Библиотека кодирования                   : LAME3.99r
Настройки программы                      : -m s -V 4 -q 2 -lowpass 17 -b 128


2021-05-23 21:46
Профиль
  • Торрент
Автор: Amigos Хэш: ---
Добавлен: 2021-05-23 21:46 Приватный: Нет (DHT включён)
Статус: Проверен
Размер: 677.32 МБ (710 225 920 байт)
Изменил:
---
Скачали: 1 (Раздающих: 0%)
Причина:
---
Здоровье: 100%
Сидеров: 1 Личеров: 0
Скорость раздачи: 0 байт/сек Скорость скачивания: 0 байт/сек
Последний сидер: 7 дней 18 часов 54 минуты 40 секунд назад Последний личер: 11 месяцев 24 дня 2 часа 9 минут 13 секунд назад
Для скачивания торрента необходимо зарегистрироваться или войти на трекер.
Показать сообщения за:  Поле сортировки  
Ответить на тему   [ 1 сообщение ] 

Кто сейчас на конференции

Сейчас этот форум просматривают: нет зарегистрированных пользователей и гости: 1


Вы не можете начинать темы
Вы не можете отвечать на сообщения
Вы не можете редактировать свои сообщения
Вы не можете удалять свои сообщения
Вы не можете добавлять вложения

Найти:
Перейти:  
Создано на основе phpBB® Forum Software © phpBB Group
ppkBB3cker v.2.5 © 2008-2021 @ PPK | Icon Theme by Everaldo.com Design Studio
Designed by ST Software.
Русская поддержка phpBB
[ Time : 0.181s | 18 Queries | GZIP : Off ]
Ресурс не предоставляет электронные версии произведений, а занимается лишь коллекционированием и каталогизацией ссылок, присылаемых и публикуемых на форуме нашими читателями. Если вы являетесь правообладателем какого-либо представленного материала и не желаете чтобы ссылка на него находилась в нашем каталоге, свяжитесь с нами и мы незамедлительно удалим её. Файлы для обмена на трекере предоставлены пользователями сайта, и администрация не несёт ответственности за их содержание. Просьба не заливать файлы, защищенные авторскими правами, а также файлы нелегального содержания!
tracker_cron Яндекс.Метрика