Сообщения без ответов | Активные темы Текущее время: 2022-05-16 23:59



Ответить на тему  [ 1 сообщение ] 
BBC. Идеальная планета / A Perfect Planet (2021) WEB-DL [H.264/1080i] (сезон 1, серии 1-5 из 5) [EN / RU, EN Sub] [PR] 
Автор Сообщение
Релизер
Релизер
Аватара пользователя
Раздал: 333.48 ГБ
Скачал: 7.47 ГБ
Ратио: 1043.767


Зарегистрирован: 2020-05-15 00:14
Сообщения: 1445
Ответить с цитатой 
Идеальная планета / A Perfect Planet (2021) WEB-DL [H.264/1080i]
(сезон 1, серии 1-5 из 5) [EN / RU, EN Sub]


#777

Производство: Великобритания, Silverback Films, British Broadcasting Corporation (BBC) for Discovery Channel
Продолжительность: серии x ~00:59:00
Перевод: отсутствует
Жанр: Документальный, природа, флора, фауна

Режиссер: Хью Корди

Участники: Дэвид Аттенборо

Описание:
Планета Земля идеальна. Всё в нашем мире - его размер, расстояние до Солнца, вращение и наклон, Луна - идеально подходит для нашего существования, и природные силы нашей планеты питают всё живое. Глобальная климатическая система циркулирует и распределяет свежий воздух во все уголки Земли, морские течения доставляют питательные вещества даже в глубочайшие места океана, солнечный свет греет и питает энергией всё, до чего достаёт, а мощные вулканы создают и удобряют почву. В результате, на нашей планете буквально нет ни одного места, где нельзя найти жизнь.

https://www.imdb.com/title/tt11891828/?ref_=plg_rt_1



Качество видео: WEB-DL
Видео: AVC/H.264, 1920x1080, ~9120 Kbps
Аудио: E-AC3, 6 ch, 640 Kbps
Субтитры: Русские (avtogen1986), английские
Код:
Общее
Уникальный идентификатор : 291066056241925920699993987609198117219 (0xDAF94889B2A64997070D39101770C163)
Полное имя : F:\КИНО\A Perfect Planet\A.Perfect.Planet.S01E01.Volcanoes.1080p.AMZN.WEB-DL.DDP5.1.H.264-NTb.mkv
Формат : Matroska
Версия формата : Version 4 / Version 2
Размер файла : 3,99 Гбайт
Продолжительность : 58 м. 32 с.
Общий поток : 9763 Кбит/сек
Дата кодирования : UTC 2021-01-04 19:24:08
Программа кодирования : mkvmerge v50.0.0 ('Awakenings') 64-bit
Библиотека кодирования : libebml v1.4.0 + libmatroska v1.6.2

Видео
Идентификатор : 1
Формат : AVC
Формат/Информация : Advanced Video Codec
Профиль формата : High@L4
Настройки формата : CABAC / 4 Ref Frames
Параметр CABAC формата : Да
Параметр RefFrames формата : 4 кадра
Идентификатор кодека : V_MPEG4/ISO/AVC
Продолжительность : 58 м. 32 с.
Вид битрейта : Постоянный
Битрейт : 9120 Кбит/сек
Номинальный битрейт : 10000 Кбит/сек
Ширина : 1920 пикселей
Высота : 1080 пикселей
Соотношение сторон : 16:9
Режим частоты кадров : Постоянный
Частота кадров : 25,000 кадров/сек
Цветовое пространство : YUV
Субдискретизация насыщенности : 4:2:0
Битовая глубина : 8 бит
Тип развёртки : Прогрессивная
Бит/(Пиксели*Кадры) : 0.176
Размер потока : 3,73 Гбайт (93%)
Default : Да
Forced : Нет
Цветовой диапазон : Limited
Основные цвета : BT.709
Характеристики трансфера : BT.709
Коэффициенты матрицы : BT.709

Аудио
Идентификатор : 2
Формат : E-AC-3
Формат/Информация : Enhanced Audio Coding 3
Параметр Endianness формата : Big
Идентификатор кодека : A_EAC3
Продолжительность : 58 м. 32 с.
Вид битрейта : Постоянный
Битрейт : 640 Кбит/сек
Каналы : 6 каналов
Расположение каналов : Front: L C R, Side: L R, LFE
Частота : 48,0 КГц
Частота кадров : 187,500 кадров/сек (256 SPF)
Метод сжатия : С потерями
Размер потока : 268 Мбайт (7%)
Язык : English
ServiceKind/String : Complete Main
Default : Да
Forced : Нет

Текст #1
Идентификатор : 3
Формат : UTF-8
Идентификатор кодека : S_TEXT/UTF8
Идентификатор кодека/Информация : UTF-8 Plain Text
Продолжительность : 57 м. 28 с.
Битрейт : 84 бит/сек
ElementCount : 501
Размер потока : 35,5 Кбайт (0%)
Заголовок : Русские субтитры
Язык : Russian
Default : Да
Forced : Нет

Текст #2
Идентификатор : 4
Формат : UTF-8
Идентификатор кодека : S_TEXT/UTF8
Идентификатор кодека/Информация : UTF-8 Plain Text
Продолжительность : 57 м. 23 с.
Битрейт : 50 бит/сек
ElementCount : 549
Размер потока : 21,4 Кбайт (0%)
Заголовок : English subtitles SDH
Язык : English
Default : Нет
Forced : Нет
1. Volcano / Вулкан
2. The Sun / Солнце
3. Weather / Погода
4. Oceans / Океаны
5. Humans / Люди

Скриншоты:


2021-01-12 14:26
Профиль
  • Торрент
Автор: Zebra Хэш: ---
Добавлен: 2021-01-12 14:26 Приватный: Нет (DHT включён)
Статус: Проверен
Размер: 15.39 ГБ (16 525 340 979 байт)
Изменил:
---
Скачали: 0 (Раздающих: 0%)
Причина:
---
Здоровье: 0%
Сидеров: 0 Личеров: 0
Скорость раздачи: 0 байт/сек Скорость скачивания: 0 байт/сек
Последний сидер: Нет Последний личер: Нет
Для скачивания торрента необходимо зарегистрироваться или войти на трекер.
Показать сообщения за:  Поле сортировки  
Ответить на тему   [ 1 сообщение ] 

Кто сейчас на конференции

Сейчас этот форум просматривают: нет зарегистрированных пользователей и гости: 1


Вы не можете начинать темы
Вы не можете отвечать на сообщения
Вы не можете редактировать свои сообщения
Вы не можете удалять свои сообщения
Вы не можете добавлять вложения

Найти:
Перейти:  
Создано на основе phpBB® Forum Software © phpBB Group
ppkBB3cker v.2.5 © 2008-2021 @ PPK | Icon Theme by Everaldo.com Design Studio
Designed by ST Software.
Русская поддержка phpBB
[ Time : 0.188s | 18 Queries | GZIP : Off ]
Ресурс не предоставляет электронные версии произведений, а занимается лишь коллекционированием и каталогизацией ссылок, присылаемых и публикуемых на форуме нашими читателями. Если вы являетесь правообладателем какого-либо представленного материала и не желаете чтобы ссылка на него находилась в нашем каталоге, свяжитесь с нами и мы незамедлительно удалим её. Файлы для обмена на трекере предоставлены пользователями сайта, и администрация не несёт ответственности за их содержание. Просьба не заливать файлы, защищенные авторскими правами, а также файлы нелегального содержания!
tracker_cron Яндекс.Метрика