Сообщения без ответов | Активные темы Текущее время: 2023-01-28 20:32



Ответить на тему  [ 1 сообщение ] 
Кукловод: Самый маленький рейх / Puppet Master: The Littlest Reich (Сонни Лагуна и др.) [2018, Ужасы, комедия, BDRip 1080p / HDRezka Studio] 
Автор Сообщение
Друг треккера
Друг треккера
Аватара пользователя
Раздал: 13.04 ТБ
Скачал: 11.16 ТБ
Ратио: 1000.168


Зарегистрирован: 2014-09-04 09:24
Сообщения: 5602
Откуда: С планеты Земля
Ответить с цитатой 
#777

Кукловод: Самый маленький рейх / Puppet Master: The Littlest Reich


Информация о фильме
Название: Кукловод: Самый маленький рейх
Оригинальное название: Puppet Master: The Littlest Reich
Год выхода: 2018
Страна: Великобритания, США
Студия: Cinestate, Ghost Horse, Zero Trans Fat Productions
Продолжительность: 01:29:58
Перевод: Профессиональный (многоголосый, закадровый) | HDRezka Studio
Жанр: Ужасы, комедия

Режиссер: Сонни Лагуна, Томмю Виклунд

В ролях: Томас Леннон, Дженни Пеллисер, Нельсон Франклин, Шарлин Йи, Майкл Паре, Барбара Крэмптон, Удо Кир, Алекс Бе, Маттиас Хьюз, Кеннеди Саммерс, Виктория Анда, Бетси Холт, Стивен Броди

О фильме:
Автор комиксов Эдгар после развода возвращается в отчий дом. В шкафу брата, погибшего ещё в детстве при странных обстоятельствах, он находит страшную куклу и решает выставить её на аукцион. Событие приурочено к 30-летию убийства Андре Тулона - нацистского кукольника-маньяка, бежавшего из Германии после Второй мировой войны. В отель прибывают гости, у многих из них есть куклы на продажу, которые, попав в непосредственную близость к своему почившему хозяину, оживают и устраивают постояльцам кровавую баню...





Файл
Формат: MKV
Качество: BDRip 1080p
Видео: MPEG-4 AVC, 1920x804, 23.976 fps, ~5899 Kbps
Аудио 1: Russian: 48 kHz, AC3, 3/2 (L,C,R,l,r) + LFE ch, ~448 kbps
Аудио 2: English: 48 kHz, DTS, 3/2 (L,C,R,l,r) + LFE ch, ~1509 kbps
Субтитры: Русские (Forced), английские


Источник: Puppet.Master.The.Littlest.Reich.2018.1080p.BluRay.x264.DTS-CHD

General
Unique ID : 248804238284877643137146075672382006848 (0xBB2DF40A2E028C7088D3B581000BE640)
Complete name : Puppet.Master.The.Littlest.Reich.2018.BDRip.1080p.mkv
Format : Matroska
Format version : Version 4 / Version 2
File size : 4.94 GiB
Duration : 1 h 29 min
Overall bit rate : 7 859 kb/s
Encoded date : UTC 2022-02-20 13:07:40
Writing application : mkvmerge v7.3.0 ('Nouages') 64bit built on Oct 22 2014 18:53:34
Writing library : libebml v1.3.0 + libmatroska v1.4.1

Video
ID : 1
Format : AVC
Format/Info : Advanced Video Codec
Format profile : High@L4.1
Format settings, CABAC : Yes
Format settings, RefFrames : 5 frames
Codec ID : V_MPEG4/ISO/AVC
Duration : 1 h 29 min
Bit rate : 5 899 kb/s
Width : 1 920 pixels
Height : 804 pixels
Display aspect ratio : 2.40:1
Frame rate mode : Constant
Frame rate : 23.976 (24000/1001) FPS
Color space : YUV
Chroma subsampling : 4:2:0
Bit depth : 8 bits
Scan type : Progressive
Bits/(Pixel*Frame) : 0.159
Stream size : 3.71 GiB (75%)
Writing library : x264 core 155 r2893 b00bcaf
Encoding settings : cabac=1 / ref=5 / deblock=1:-3:-3 / analyse=0x3:0x113 / me=umh / subme=10 / psy=1 / psy_rd=1.00:0.05 / mixed_ref=1 / me_range=48 / chroma_me=1 / trellis=2 / 8x8dct=1 / cqm=0 / deadzone=21,11 / fast_pskip=0 / chroma_qp_offset=-2 / threads=18 / lookahead_threads=3 / sliced_threads=0 / nr=0 / decimate=1 / interlaced=0 / bluray_compat=0 / constrained_intra=0 / bframes=8 / b_pyramid=2 / b_adapt=2 / b_bias=0 / direct=3 / weightb=1 / open_gop=0 / weightp=2 / keyint=250 / keyint_min=23 / scenecut=40 / intra_refresh=0 / rc_lookahead=40 / rc=crf / mbtree=0 / crf=18.0 / qcomp=0.60 / qpmin=0 / qpmax=69 / qpstep=4 / vbv_maxrate=50000 / vbv_bufsize=45000 / crf_max=0.0 / nal_hrd=none / filler=0 / ip_ratio=1.40 / pb_ratio=1.30 / aq=3:1.00
Language : English
Default : Yes
Forced : No
Color range : Limited
Matrix coefficients : BT.709

Audio #1
ID : 2
Format : AC-3
Format/Info : Audio Coding 3
Format settings, Endianness : Big
Codec ID : A_AC3
Duration : 1 h 29 min
Bit rate mode : Constant
Bit rate : 448 kb/s
Channel(s) : 6 channels
Channel positions : Front: L C R, Side: L R, LFE
Sampling rate : 48.0 kHz
Frame rate : 31.250 FPS (1536 SPF)
Bit depth : 16 bits
Compression mode : Lossy
Stream size : 288 MiB (6%)
Title : MVO (HDRezka Studio)
Language : Russian
Service kind : Complete Main
Default : Yes
Forced : No

Audio #2
ID : 3
Format : DTS
Format/Info : Digital Theater Systems
Mode : 16
Format settings, Endianness : Big
Codec ID : A_DTS
Duration : 1 h 29 min
Bit rate mode : Constant
Bit rate : 1 509 kb/s
Channel(s) : 6 channels
Channel positions : Front: L C R, Side: L R, LFE
Sampling rate : 48.0 kHz
Frame rate : 93.750 FPS (512 SPF)
Bit depth : 24 bits
Compression mode : Lossy
Stream size : 971 MiB (19%)
Title : Original
Language : English
Default : No
Forced : No

Text #1
ID : 4
Format : UTF-8
Codec ID : S_TEXT/UTF8
Codec ID/Info : UTF-8 Plain Text
Duration : 1 h 24 min
Bit rate : 1 b/s
Count of elements : 21
Stream size : 897 Bytes (0%)
Title : Forced
Language : Russian
Default : Yes
Forced : No

Text #2
ID : 5
Format : UTF-8
Codec ID : S_TEXT/UTF8
Codec ID/Info : UTF-8 Plain Text
Duration : 1 h 29 min
Bit rate : 49 b/s
Count of elements : 863
Stream size : 32.7 KiB (0%)
Title : Full
Language : English
Default : No
Forced : No

Menu
00:00:00.000 : en:Chapter 01
00:10:32.590 : en:Chapter 02
00:16:33.283 : en:Chapter 03
00:25:21.353 : en:Chapter 04
00:37:01.302 : en:Chapter 05
00:44:12.524 : en:Chapter 06
00:56:23.338 : en:Chapter 07
01:00:37.342 : en:Chapter 08
01:16:52.858 : en:Chapter 09
01:25:33.128 : en:Chapter 10


2023-01-23 19:47
Профиль WWW
  • Торрент
Автор: Sovetnik Хэш: ---
Добавлен: 2023-01-23 19:47 Приватный: Нет (DHT включён)
Статус: Проверен
Размер: 4.94 ГБ (5 303 020 231 байт)
Изменил:
---
Скачали: 122 (Раздающих: 0%)
Причина:
---
Здоровье: 100%
Сидеров: 27 Личеров: 2
Скорость раздачи: 0 байт/сек Скорость скачивания: 0 байт/сек
Последний сидер: 3 часа 54 минуты назад Последний личер: 3 часа 54 минуты назад
Для скачивания торрента необходимо зарегистрироваться или войти на трекер.
Показать сообщения за:  Поле сортировки  
Ответить на тему   [ 1 сообщение ] 

Кто сейчас на конференции

Сейчас этот форум просматривают: нет зарегистрированных пользователей и гости: 5


Вы не можете начинать темы
Вы не можете отвечать на сообщения
Вы не можете редактировать свои сообщения
Вы не можете удалять свои сообщения
Вы не можете добавлять вложения

Найти:
Перейти:  
Создано на основе phpBB® Forum Software © phpBB Group
ppkBB3cker v.2.5 © 2008-2021 @ PPK | Icon Theme by Everaldo.com Design Studio
Designed by ST Software.
Русская поддержка phpBB
[ Time : 0.184s | 20 Queries | GZIP : Off ]
Ресурс не предоставляет электронные версии произведений, а занимается лишь коллекционированием и каталогизацией ссылок, присылаемых и публикуемых на форуме нашими читателями. Если вы являетесь правообладателем какого-либо представленного материала и не желаете чтобы ссылка на него находилась в нашем каталоге, свяжитесь с нами и мы незамедлительно удалим её. Файлы для обмена на трекере предоставлены пользователями сайта, и администрация не несёт ответственности за их содержание. Просьба не заливать файлы, защищенные авторскими правами, а также файлы нелегального содержания!
Яндекс.Метрика