Сообщения без ответов | Активные темы Текущее время: 2023-01-28 19:17



Ответить на тему  [ 1 сообщение ] 
Поцелуй смерти / Kiss of Death (Барбет Шрёдер) [1995, боевик, триллер, криминал, WEB-DLRip-AVC / P] 
Автор Сообщение
Релизер
Релизер
Аватара пользователя
Раздал: 507.24 ГБ
Скачал: 27.58 ГБ
Ратио: 1018.394


Зарегистрирован: 2020-05-15 00:14
Сообщения: 1943
Ответить с цитатой 
#777

Поцелуй смерти / Kiss of Death


Информация о фильме
Название: Поцелуй смерти
Оригинальное название: Kiss of Death
Год выхода: 1995
Страна: США
Выпущено: 20th Century Fox
Продолжительность: 01:40:43
Перевод: Профессиональный (многоголосый закадровый)
Жанр: боевик, триллер, криминал

Режиссер: Барбет Шрёдер

В ролях: Дэвид Карузо, Сэмюэл Л. Джексон, Николас Кейдж, Хелен Хант, Кэтрин Эрбе, Стэнли Туччи, Майкл Рапапорт, Винг Реймз, Филип Бейкер Холл, Энтони Хилд....

О фильме:
Бывшему заключенному Джимми Килмартину не позавидуешь. После того, как он вышел из тюрьмы на свободу, полицейские, не оставив выбора, решили использовать его в качестве «стукача», внедрив в одну из криминальных группировок Нью - Йорка. жимми придется лавировать между амбициями честолюбивого прокурора, рвущегося любыми способами усадить гангстеров за решетку, и смертельными играми безжалостного главаря бандитов, для которого нет врага хуже предателя. Джимми, оказавшийся в безвыходном положении, будет готов ощутить на себе поцелуй смерти, лишь бы вырваться из засасывающей его зловещей трясины лжи, предательства и вероломства...



Файл
Формат: Matroska
Качество: WEB-DLRip-AVC | AMZN
Видео: 1024x552 at 23.976 fps, x264@L4.1, ~2651 kbps, 0.196 bpp
Аудио: AC3, 6 ch, ~448 kbps - | Русский | -(MVO R5/Первый канал)
Субтитры: Russian, English
Формат субтитров: softsub (SRT)

General
Format : Matroska
Format version : Version 4
File size : 2.18 GiB
Duration : 1 h 40 min
Overall bit rate : 3 101 kb/s
Movie name : Поцелуй смерти.(1995).WEB-DLRip-AVC.[-=DoMiNo=-]
Encoded date : UTC 2020-12-21 15:08:48
Writing application : mkvmerge v51.0.0 ('I Wish') 64-bit
Writing library : libebml v1.4.0 + libmatroska v1.6.2
Cover : Yes
Attachments : Cover.jpg / Cover 2.jpg

Video
ID : 1
Format : AVC
Format/Info : Advanced Video Codec
Format profile : High@L4.1
Format settings : CABAC / 14 Ref Frames
Format settings, CABAC : Yes
Format settings, Reference : 14 frames
Codec ID : V_MPEG4/ISO/AVC
Duration : 1 h 40 min
Bit rate : 2 651 kb/s
Width : 1 024 pixels
Height : 552 pixels
Display aspect ratio : 1.85:1
Frame rate mode : Constant
Frame rate : 23.976 (24000/1001) FPS
Color space : YUV
Chroma subsampling : 4:2:0
Bit depth : 8 bits
Scan type : Progressive
Bits/(Pixel*Frame) : 0.196
Stream size : 1.86 GiB (85%)
Title : -=DoMiNo=-
Writing library : x264 core 161 r3027 4121277
Encoding settings : cabac=1 / ref=14 / deblock=1:-2:-2 / analyse=0x3:0x133 / me=umh / subme=10 / psy=1 / psy_rd=1.00:0.15 / mixed_ref=1 / me_range=32 / chroma_me=1 / trellis=2 / 8x8dct=1 / cqm=0 / deadzone=21,11 / fast_pskip=0 / chroma_qp_offset=-3 / threads=6 / lookahead_threads=1 / sliced_threads=0 / nr=0 / decimate=0 / interlaced=0 / bluray_compat=0 / constrained_intra=0 / bframes=9 / b_pyramid=2 / b_adapt=2 / b_bias=0 / direct=3 / weightb=1 / open_gop=0 / weightp=2 / keyint=250 / keyint_min=23 / scenecut=40 / intra_refresh=0 / rc_lookahead=60 / rc=2pass / mbtree=0 / bitrate=2651 / ratetol=1.0 / qcomp=0.65 / qpmin=0 / qpmax=69 / qpstep=4 / cplxblur=20.0 / qblur=0.5 / vbv_maxrate=50000 / vbv_bufsize=62500 / nal_hrd=none / filler=0 / ip_ratio=1.40 / pb_ratio=1.30 / aq=1:1.00
Language : English
Default : Yes
Forced : No
Color range : Limited
Color primaries : BT.709
Transfer characteristics : BT.709
Matrix coefficients : BT.709

Audio
ID : 2
Format : AC-3
Format/Info : Audio Coding 3
Commercial name : Dolby Digital
Codec ID : A_AC3
Duration : 1 h 40 min
Bit rate mode : Constant
Bit rate : 448 kb/s
Channel(s) : 6 channels
Channel layout : L R C LFE Ls Rs
Sampling rate : 48.0 kHz
Frame rate : 31.250 FPS (1536 SPF)
Compression mode : Lossy
Stream size : 323 MiB (14%)
Title : MVO_[R5]
Language : Russian
Service kind : Complete Main
Default : Yes
Forced : No

Text #1
ID : 3
Format : UTF-8
Codec ID : S_TEXT/UTF8
Codec ID/Info : UTF-8 Plain Text
Duration : 1 h 36 min
Bit rate : 78 b/s
Count of elements : 1040
Stream size : 55.5 KiB (0%)
Language : Russian
Default : No
Forced : No

Text #2
ID : 4
Format : UTF-8
Codec ID : S_TEXT/UTF8
Codec ID/Info : UTF-8 Plain Text
Duration : 1 h 39 min
Bit rate : 54 b/s
Count of elements : 1377
Stream size : 40.1 KiB (0%)
Language : English
Default : No
Forced : No

Menu
00:00:00.000 : en:Chapter 01
00:02:59.045 : en:Chapter 02
00:07:44.964 : en:Chapter 03
00:10:11.611 : en:Chapter 04
00:13:41.654 : en:Chapter 05
00:18:52.131 : en:Chapter 06
00:24:52.991 : en:Chapter 07
00:31:09.367 : en:Chapter 08
00:35:55.820 : en:Chapter 09
00:40:02.066 : en:Chapter 10
00:44:24.828 : en:Chapter 11
00:49:23.961 : en:Chapter 12
00:56:06.663 : en:Chapter 13
01:01:34.824 : en:Chapter 14
01:06:03.926 : en:Chapter 15
01:15:20.983 : en:Chapter 16
01:19:10.545 : en:Chapter 17
01:24:38.873 : en:Chapter 18
01:29:55.857 : en:Chapter 19
01:35:40.067 : en:Chapter 20


***Релиз от: -=DoMiNo=-


2023-01-23 18:47
Профиль
  • Торрент
Автор: Zebra Хэш: ---
Добавлен: 2023-01-23 18:47 Приватный: Нет (DHT включён)
Статус: Проверен
Размер: 2.18 ГБ (2 342 233 621 байт)
Изменил:
---
Скачали: 0 (Раздающих: 0%)
Причина:
---
Здоровье: ???%
Сидеров: 0 Личеров: 67
Скорость раздачи: 0 байт/сек Скорость скачивания: 0 байт/сек
Последний сидер: Нет Последний личер: 2 часа 39 минут 14 секунд назад
Для скачивания торрента необходимо зарегистрироваться или войти на трекер.
Показать сообщения за:  Поле сортировки  
Ответить на тему   [ 1 сообщение ] 

Кто сейчас на конференции

Сейчас этот форум просматривают: нет зарегистрированных пользователей и гости: 6


Вы не можете начинать темы
Вы не можете отвечать на сообщения
Вы не можете редактировать свои сообщения
Вы не можете удалять свои сообщения
Вы не можете добавлять вложения

Найти:
Перейти:  
Создано на основе phpBB® Forum Software © phpBB Group
ppkBB3cker v.2.5 © 2008-2021 @ PPK | Icon Theme by Everaldo.com Design Studio
Designed by ST Software.
Русская поддержка phpBB
[ Time : 0.184s | 18 Queries | GZIP : Off ]
Ресурс не предоставляет электронные версии произведений, а занимается лишь коллекционированием и каталогизацией ссылок, присылаемых и публикуемых на форуме нашими читателями. Если вы являетесь правообладателем какого-либо представленного материала и не желаете чтобы ссылка на него находилась в нашем каталоге, свяжитесь с нами и мы незамедлительно удалим её. Файлы для обмена на трекере предоставлены пользователями сайта, и администрация не несёт ответственности за их содержание. Просьба не заливать файлы, защищенные авторскими правами, а также файлы нелегального содержания!
tracker_cron Яндекс.Метрика