Сообщения без ответов | Активные темы Текущее время: 2023-01-28 19:44



Ответить на тему  [ 1 сообщение ] 
Американские горки / Switchback (Джеб Стюарт) [1997, триллер, криминал, детектив, WEBRip-AVC / P, A] 
Автор Сообщение
Друг треккера
Друг треккера
Аватара пользователя
Раздал: 13.04 ТБ
Скачал: 11.16 ТБ
Ратио: 1000.168


Зарегистрирован: 2014-09-04 09:24
Сообщения: 5602
Откуда: С планеты Земля
Ответить с цитатой 
#777

Американские горки / Switchback


Информация о фильме
Название: Американские горки
Оригинальное название: Switchback
Год выхода: 1997
Студия: Pacific Western, Paramount Pictures, Rysher Entertainment
Страна: США
Продолжительность: 01:58:14
Перевод:
Профессиональный (многоголосый, закадровый) СТС
Авторский (одноголосый, закадровый) Чадов Михаил
Авторский (одноголосый, закадровый) Живов Юрий Викторович
Жанр: триллер, криминал, детектив

Режиссер: Джеб Стюарт

В ролях: Деннис Куэйд, Дэнни Гловер, Джаред Лето, Тед Левайн, Клаудия Стеделин, Йен Блейк Нельсон, Брент Хинкли, Р. Ли Эрми, Уолтон Гоггинс, Луис Шефер, ...

О фильме:
Ожесточенная схватка между специальным агентом ФБР Фрэнком ЛаГроссом и серийным убийцей должна завершиться смертью одного из них… Полтора года Фрэнк преследовал таинственного преступника с характерным «хирургическим» почерком. Никто не знал о нем больше, чем Фрэнк, но это были не факты, а интуиция профессионала. Между тем, убийца знал о Фрэнке все и жаждал очной дуэли. И он похищает сына Фрэнка, обозначая тем самым личностный мотив их противоборства…



Файл
Кодек: x264
Качество: WEBRip-AVC
Видео: 1008x420, ~1563 kbps, 23,976 fps
Аудио #1: AAC, 2 ch, ~64 kbps - MVO СТС
Аудио #2: AAC, 2 ch, ~64 kbps - AVO Чадов Михаил
Аудио #3: AAC, 2 ch, ~64 kbps - AVO Живов Юрий Викторович
Субтитры: Русские, Английские

x264 info: frame I:1457 Avg QP:12.57 size: 63307
x264 info: frame P:41371 Avg QP:15.92 size: 17502
x264 info: frame B:127259 Avg QP:18.45 size: 4459
x264 info: consecutive B-frames: 2.1% 3.2% 6.6% 53.0% 9.9% 19.8% 2.5% 1.9% 0.4% 0.2% 0.1% 0.1% 0.3%
General
Complete name : Американские горки.(1997).WEBRIP-AVC.[-=DoMiNo=-].mkv
Format : Matroska
Format version : Version 4 / Version 2
File size : 1.45 GiB
Duration : 1 h 58 min
Overall bit rate : 1 758 kb/s
Encoded date : UTC 2017-12-04 04:06:32
Writing application : mkvmerge v18.0.0 ('Apricity') 64-bit
Writing library : libebml v1.3.5 + libmatroska v1.4.8
Attachments : poster.jpg
COMPOSER : Бэзил Поледурис
COUNTRY : США
DATE : 1997
DIRECTOR : Джеб Стюарт
GENRE : триллер, криминал, детектив
IMDB_RATING : 6.40
ITUNEXTC : mpaa|R|400|
ORIGINAL_TITLE : Switchback
RATING : 7.062
WRITER : Джеб Стюарт

Video
ID : 1
Format : AVC
Format/Info : Advanced Video Codec
Format profile : High@L4.1
Format settings : CABAC / 11 Ref Frames
Format settings, CABAC : Yes
Format settings, ReFrames : 11 frames
Codec ID : V_MPEG4/ISO/AVC
Duration : 1 h 58 min
Bit rate : 1 563 kb/s
Width : 1 008 pixels
Height : 420 pixels
Display aspect ratio : 2.40:1
Frame rate mode : Constant
Frame rate : 23.976 (24000/1001) FPS
Color space : YUV
Chroma subsampling : 4:2:0
Bit depth : 8 bits
Scan type : Progressive
Bits/(Pixel*Frame) : 0.154
Stream size : 1.29 GiB (89%)
Title : RIP_BY_-=DoMiNo=-
Writing library : x264 core 152 r2851M ba24899
Encoding settings : cabac=1 / ref=11 / deblock=1:-3:-3 / analyse=0x3:0x133 / me=umh / subme=11 / psy=1 / psy_rd=1.00:0.05 / mixed_ref=1 / me_range=32 / chroma_me=1 / trellis=2 / 8x8dct=1 / cqm=0 / deadzone=21,11 / fast_pskip=1 / chroma_qp_offset=-3 / threads=5 / lookahead_threads=1 / sliced_threads=0 / nr=0 / decimate=1 / interlaced=0 / bluray_compat=0 / constrained_intra=0 / bframes=12 / b_pyramid=2 / b_adapt=2 / b_bias=0 / direct=3 / weightb=1 / open_gop=0 / weightp=2 / keyint=240 / keyint_min=24 / scenecut=40 / intra_refresh=0 / rc_lookahead=60 / rc=2pass / mbtree=1 / bitrate=1563 / ratetol=1.0 / qcomp=0.65 / qpmin=0 / qpmax=69 / qpstep=4 / cplxblur=20.0 / qblur=0.5 / ip_ratio=1.40 / aq=1:1.00
Language : English
Default : Yes
Forced : No
Color range : Limited
Color primaries : BT.709
Transfer characteristics : BT.709
Matrix coefficients : BT.709

Audio #1
ID : 2
Format : AAC
Format/Info : Advanced Audio Codec
Format profile : HE-AAC / LC
Format settings : Implicit
Codec ID : A_AAC-2
Duration : 1 h 58 min
Bit rate : 64.0 kb/s
Channel(s) : 2 channels
Channel positions : Front: L R
Sampling rate : 48.0 kHz / 24.0 kHz
Frame rate : 23.438 FPS (1024 SPF)
Compression mode : Lossy
Stream size : 54.1 MiB (4%)
Title : MVO СТС
Language : Russian
Default : Yes
Forced : No

Audio #2
ID : 3
Format : AAC
Format/Info : Advanced Audio Codec
Format profile : HE-AAC / LC
Format settings : Implicit
Codec ID : A_AAC-2
Duration : 1 h 58 min
Bit rate : 64.0 kb/s
Channel(s) : 2 channels
Channel positions : Front: L R
Sampling rate : 48.0 kHz / 24.0 kHz
Frame rate : 23.438 FPS (1024 SPF)
Compression mode : Lossy
Stream size : 54.1 MiB (4%)
Title : AVO Чадов Михаил
Language : Russian
Default : No
Forced : No

Audio #3
ID : 4
Format : AAC
Format/Info : Advanced Audio Codec
Format profile : HE-AAC / LC
Format settings : Implicit
Codec ID : A_AAC-2
Duration : 1 h 58 min
Bit rate : 64.0 kb/s
Channel(s) : 2 channels
Channel positions : Front: L R
Sampling rate : 48.0 kHz / 24.0 kHz
Frame rate : 23.438 FPS (1024 SPF)
Compression mode : Lossy
Stream size : 54.1 MiB (4%)
Title : AVO Живов Юрий Викторович
Language : Russian
Default : No
Forced : No

Text #1
ID : 5
Format : UTF-8
Codec ID : S_TEXT/UTF8
Codec ID/Info : UTF-8 Plain Text
Duration : 1 h 52 min
Bit rate : 100 b/s
Count of elements : 1792
Stream size : 82.5 KiB (0%)
Language : Russian
Default : No
Forced : No

Text #2
ID : 6
Format : UTF-8
Codec ID : S_TEXT/UTF8
Codec ID/Info : UTF-8 Plain Text
Duration : 1 h 53 min
Bit rate : 97 b/s
Count of elements : 1686
Stream size : 81.1 KiB (0%)
Title : Перевод Переводман
Language : Russian
Default : No
Forced : No

Text #3
ID : 7
Format : UTF-8
Codec ID : S_TEXT/UTF8
Codec ID/Info : UTF-8 Plain Text
Duration : 1 h 56 min
Bit rate : 59 b/s
Count of elements : 1833
Stream size : 51.0 KiB (0%)
Language : English
Default : No
Forced : No

Text #4
ID : 8
Format : UTF-8
Codec ID : S_TEXT/UTF8
Codec ID/Info : UTF-8 Plain Text
Duration : 1 h 56 min
Bit rate : 57 b/s
Count of elements : 1751
Stream size : 49.2 KiB (0%)
Language : English
Default : No
Forced : No


2023-01-23 15:16
Профиль WWW
  • Торрент
Автор: Sovetnik Хэш: ---
Добавлен: 2023-01-23 15:16 Приватный: Нет (DHT включён)
Статус: Проверен
Размер: 1.45 ГБ (1 559 152 667 байт)
Изменил:
---
Скачали: 31 (Раздающих: 0%)
Причина:
---
Здоровье: 92%
Сидеров: 13 Личеров: 14
Скорость раздачи: 0 байт/сек Скорость скачивания: 0 байт/сек
Последний сидер: 3 часа 6 минут 41 секунду назад Последний личер: 3 часа 6 минут 41 секунду назад
Для скачивания торрента необходимо зарегистрироваться или войти на трекер.
Показать сообщения за:  Поле сортировки  
Ответить на тему   [ 1 сообщение ] 

Кто сейчас на конференции

Сейчас этот форум просматривают: нет зарегистрированных пользователей и гости: 4


Вы не можете начинать темы
Вы не можете отвечать на сообщения
Вы не можете редактировать свои сообщения
Вы не можете удалять свои сообщения
Вы не можете добавлять вложения

Найти:
Перейти:  
Создано на основе phpBB® Forum Software © phpBB Group
ppkBB3cker v.2.5 © 2008-2021 @ PPK | Icon Theme by Everaldo.com Design Studio
Designed by ST Software.
Русская поддержка phpBB
[ Time : 0.182s | 18 Queries | GZIP : Off ]
Ресурс не предоставляет электронные версии произведений, а занимается лишь коллекционированием и каталогизацией ссылок, присылаемых и публикуемых на форуме нашими читателями. Если вы являетесь правообладателем какого-либо представленного материала и не желаете чтобы ссылка на него находилась в нашем каталоге, свяжитесь с нами и мы незамедлительно удалим её. Файлы для обмена на трекере предоставлены пользователями сайта, и администрация не несёт ответственности за их содержание. Просьба не заливать файлы, защищенные авторскими правами, а также файлы нелегального содержания!
tracker_cron Яндекс.Метрика