Сообщения без ответов | Активные темы Текущее время: 2023-01-28 19:20



Ответить на тему  [ 1 сообщение ] 
Тень. Взять Гордея (Илья Куликов и др.) [2022, Детектив, триллер, приключения, WEB-DL 1080p] 
Автор Сообщение
Релизер
Релизер
Аватара пользователя
Раздал: 476.93 ГБ
Скачал: 35.12 ГБ
Ратио: 1013.281


Зарегистрирован: 2020-05-07 22:22
Сообщения: 1548
Ответить с цитатой 
#777

Тень.
Взять Гордея


Информация о фильме
Название: Тень. Взять Гордея
Год выхода: 2022
Страна: Россия
Студия: Legio Felix
Продолжительность: 01:26:17
Язык: Русский
Жанр: Детектив, триллер, приключения

Режиссер: Илья Куликов, Аня Мирохина

В ролях: Олег Гаас, Екатерина Шарыкина, Денис Пьянов, Татьяна Бабенкова, Филипп Янковский, Мария Лисовая, Антон Кукушкин, Надежда Михалкова, Андрей Ильин, Елизавета Смирнова, Владимир Верёвочкин, Олег Евтеев, Дмитрий Поднозов, Радмил Хайрутдинов, Артур Каспранов, Артём Ешкин, Савелий Наумов, Алексей Вакарчук, Александр Лавров, Роман Ёлкин, Иман Байсаева, Роман Личутин, Стефан Де Дюрфор....

О фильме:
Основано на реальных событиях. Он — неуловимый шпион, который проходит по сводкам как «Гордей». Он — настоящая тень, человек с множеством лиц, которого никто никогда не видел. Поймать предателя Гордея — главная цель российской контрразведки, ведь этот загадочный человек неуловим и крадет государственные секреты. Когда появляется информация, что Гордей прямо сейчас действует в Москве и под угрозой оказывается национальная безопасность страны, на его след выходит молодой контрразведчик Вадим. Ставки в шпионской игре повышаются с каждым днем, главная из них — поймать Гордея пока не поздно, или погибнуть…




Семпл



Премьера в Росcии: 08 декабря 2022 года

Цифровой релиз: 22 января 2023 года

Возраст: 16+

Файл
Формат: MKV
Качество: WEB-DL 1080p
Видео: MPEG-4 AVC, ~ 5120 Кбит/с, 1920x804
Звук: AAC, 6 ch, 512 Кбит/с
Субтитры: Отсутствуют

Общее
Уникальный идентификатор : 230193898234599204526019575633939283852 (0xAD2DBB6F00D115FC8C0B3D0D112C3F8C)
Полное имя : D:Ten.Vzyat.Gordeya.2022.WEB-DL.1080p.mkv
Формат : Matroska
Версия формата : Version 4
Размер файла : 3,39 Гбайт
Продолжительность : 1 ч. 26 м.
Общий поток : 5 627 Кбит/сек
Название фильма : Ten.Vzyat.Gordeya.2022.WEB-DL.1080p
Дата кодирования : UTC 2023-01-21 21:38:37
Программа кодирования : mkvmerge v72.0.0 ('Minuano (Six-eight)') 64-bit
Библиотека кодирования : libebml v1.4.4 + libmatroska v1.7.1
Attachments : poster.jpg

Видео
Идентификатор : 1
Формат : AVC
Формат/Информация : Advanced Video Codec
Профиль формата : High@L4
Настройки формата : CABAC / 4 Ref Frames
Параметр CABAC формата : Да
Параметр RefFrames формата : 4 кадра
Параметр GOP формата : M=7, N=48
Идентификатор кодека : V_MPEG4/ISO/AVC
Продолжительность : 1 ч. 26 м.
Битрейт : 5 120 Кбит/сек
Ширина : 1 920 пикселей
Высота : 804 пикселя
Соотношение сторон : 2,40:1
Режим частоты кадров : Постоянный
Частота кадров : 24,000 кадра/сек
Цветовое пространство : YUV
Субдискретизация насыщенности : 4:2:0
Битовая глубина : 8 бит
Тип развёртки : Прогрессивная
Бит/(Пиксели*Кадры) : 0.138
Размер потока : 3,08 Гбайт (91%)
Библиотека кодирования : x264 core 152 r2854 e9a5903
Настройки программы : cabac=1 / ref=3 / deblock=1:0:0 / analyse=0x3:0x113 / me=hex / subme=7 / psy=1 / psy_rd=1.00:0.00 / mixed_ref=1 / me_range=16 / chroma_me=1 / trellis=1 / 8x8dct=1 / cqm=0 / deadzone=21,11 / fast_pskip=1 / chroma_qp_offset=-2 / threads=25 / lookahead_threads=4 / sliced_threads=0 / nr=0 / decimate=1 / interlaced=0 / bluray_compat=0 / constrained_intra=0 / bframes=6 / b_pyramid=2 / b_adapt=1 / b_bias=0 / direct=1 / weightb=1 / open_gop=0 / weightp=2 / keyint=48 / keyint_min=25 / scenecut=0 / intra_refresh=0 / rc_lookahead=40 / rc=2pass / mbtree=1 / bitrate=5120 / ratetol=1.0 / qcomp=0.60 / qpmin=0 / qpmax=69 / qpstep=4 / cplxblur=20.0 / qblur=0.5 / vbv_maxrate=7680 / vbv_bufsize=20480 / nal_hrd=none / filler=0 / ip_ratio=1.40 / aq=1:1.00
Default : Да
Forced : Нет

Аудио
Идентификатор : 2
Формат : AAC LC
Формат/Информация : Advanced Audio Codec Low Complexity
Идентификатор кодека : A_AAC-2
Продолжительность : 1 ч. 26 м.
Битрейт : 512 Кбит/сек
Каналы : 6 каналов
Channel layout : C L R Ls Rs LFE
Частота : 48,0 КГц
Частота кадров : 46,875 кадров/сек (1024 SPF)
Метод сжатия : С потерями
Размер потока : 316 Мбайт (9%)
Заголовок : [Original | 5.1 AAC Audio]
Язык : Russian
Default : Да
Forced : Нет


2023-01-23 15:33
Профиль
  • Торрент
Автор: Klingon Хэш: ---
Добавлен: 2023-01-23 15:33 Приватный: Нет (DHT включён)
Статус: Проверен
Размер: 3.39 ГБ (3 641 323 614 байт)
Изменил:
---
Скачали: 8421 (Раздающих: 0%)
Причина:
---
Здоровье: 100%
Сидеров: 1569 Личеров: 454
Скорость раздачи: 0 байт/сек Скорость скачивания: 0 байт/сек
Последний сидер: 2 часа 42 минуты 14 секунд назад Последний личер: 2 часа 42 минуты 14 секунд назад
Для скачивания торрента необходимо зарегистрироваться или войти на трекер.
Показать сообщения за:  Поле сортировки  
Ответить на тему   [ 1 сообщение ] 

Кто сейчас на конференции

Сейчас этот форум просматривают: нет зарегистрированных пользователей и гости: 3


Вы не можете начинать темы
Вы не можете отвечать на сообщения
Вы не можете редактировать свои сообщения
Вы не можете удалять свои сообщения
Вы не можете добавлять вложения

Найти:
Перейти:  
Создано на основе phpBB® Forum Software © phpBB Group
ppkBB3cker v.2.5 © 2008-2021 @ PPK | Icon Theme by Everaldo.com Design Studio
Designed by ST Software.
Русская поддержка phpBB
[ Time : 0.189s | 18 Queries | GZIP : Off ]
Ресурс не предоставляет электронные версии произведений, а занимается лишь коллекционированием и каталогизацией ссылок, присылаемых и публикуемых на форуме нашими читателями. Если вы являетесь правообладателем какого-либо представленного материала и не желаете чтобы ссылка на него находилась в нашем каталоге, свяжитесь с нами и мы незамедлительно удалим её. Файлы для обмена на трекере предоставлены пользователями сайта, и администрация не несёт ответственности за их содержание. Просьба не заливать файлы, защищенные авторскими правами, а также файлы нелегального содержания!
tracker_cron Яндекс.Метрика