Сообщения без ответов | Активные темы Текущее время: 2023-01-28 20:50



Ответить на тему  [ 1 сообщение ] 
Операция «Фортуна»: Искусство побеждать / Operation Fortune: Ruse de guerre (Гай Ричи) [2023, боевик, триллер, комедия, TS-AVC / D / TS] 
Автор Сообщение
VIP
VIP
Аватара пользователя
Раздал: 28 ГБ
Скачал: 282.4 МБ
Ратио: 101.529


Зарегистрирован: 2022-12-10 10:27
Сообщения: 99
Ответить с цитатой 
#777

Операция «Фортуна»: Искусство побеждать / Operation Fortune: Ruse de guerre

«Один из лучших агентов MИ-6 собирает элитную спецгруппу, чтобы помешать опаснейшим торговцам оружием. Для секретной миссии под прикрытием супершпионам потребуется помощь голливудской звезды. Джейсон Стэйтем в комедийном боевике Гая Ричи.»


Информация о фильме
Название: Операция «Фортуна»: Искусство побеждать
Оригинальное название: Operation Fortune: Ruse de guerre
Год выхода: 2023
Выпущено: США, Китай, Турция / AZ Celtic Films, Miramax, STX Films
Продолжительность: 01:46:17
Озвучивание: Дублированное | TS
Жанр: боевик, триллер, комедия

Режиссер: Гай Ричи

В ролях: Джейсон Стэйтем, Обри Плаза, Джош Хартнетт, Кэри Элвес, Багзи Мэлоун, Хью Грант, Эдди Марсан, Тим Сейфи, Питер Фердинандо, Макс Бисли, Евгения Кузьмина...

О фильме:
Элитный разведчик Орсон Форчун получил новое задание: остановить продажу и распространение смертельного оружия. Но в одиночку ему эту миссию не потянуть. Он вынужден объединиться с лучшими оперативниками мира, а также известным киноактером, который предоставит лихой группе убедительное прикрытие. На кону - судьба человечества, и в этот раз супершпионам придется играть по правилам Голливуда...



Скачать: Сэмпл

Примечание: Дорожка с переводом получена очисткой и последующей обработкой звука экранки.

Файл
Формат: MKV
Качество: TS-AVC
Видео: MPEG-4 AVC, 1738 Kb/s, 1152x496
Аудио: Russian: AC3, 224 Kb/s (2 ch)
Субтитры: Нет

Complete name : Operation.Fortune.2022.TS.Rus.Dub.DD.2.0.mkv
Format : Matroska
Format version : Version 4 / Version 2
File size : 1.46 GiB
Duration : 1 h 46 min
Overall bit rate : 1 964 kb/s
Encoded date : UTC 2023-01-23 15:09:20
Writing application : mkvmerge v65.0.0 ('Too Much') 64-bit
Writing library : libebml v1.4.2 + libmatroska v1.6.4

Video
ID : 1
Format : AVC
Format/Info : Advanced Video Codec
Format profile : High@L4.1
Format settings : CABAC / 16 Ref Frames
Format settings, CABAC : Yes
Format settings, ReFrames : 16 frames
Codec ID : V_MPEG4/ISO/AVC
Duration : 1 h 46 min
Bit rate : 1 738 kb/s
Width : 1 152 pixels
Height : 496 pixels
Display aspect ratio : 2.35:1
Frame rate mode : Constant
Frame rate : 23.976 (24000/1001) FPS
Color space : YUV
Chroma subsampling : 4:2:0
Bit depth : 8 bits
Scan type : Progressive
Bits/(Pixel*Frame) : 0.127
Stream size : 1.29 GiB (89%)
Title : Operation.Fortune.2022.TS
Writing library : x264 core 148 r2638 7599210
Encoding settings : cabac=1 / ref=16 / deblock=1:0:0 / analyse=0x3:0x113 / me=umh / subme=10 / psy=1 / psy_rd=1.00:0.00 / mixed_ref=1 / me_range=32 / chroma_me=1 / trellis=2 / 8x8dct=1 / cqm=0 / deadzone=21,11 / fast_pskip=1 / chroma_qp_offset=-2 / threads=12 / lookahead_threads=3 / sliced_threads=0 / nr=0 / decimate=1 / interlaced=0 / bluray_compat=0 / constrained_intra=0 / bframes=16 / b_pyramid=2 / b_adapt=2 / b_bias=0 / direct=3 / weightb=1 / open_gop=0 / weightp=2 / keyint=250 / keyint_min=23 / scenecut=40 / intra_refresh=0 / rc_lookahead=60 / rc=2pass / mbtree=1 / bitrate=1738 / ratetol=1.0 / qcomp=0.60 / qpmin=0 / qpmax=69 / qpstep=4 / cplxblur=20.0 / qblur=0.5 / ip_ratio=1.40 / aq=1:1.00
Default : Yes
Forced : No
Color range : Limited
Color primaries : BT.709
Transfer characteristics : BT.709
Matrix coefficients : BT.709

Audio
ID : 2
Format : AC-3
Format/Info : Audio Coding 3
Codec ID : A_AC3
Duration : 1 h 46 min
Bit rate mode : Constant
Bit rate : 224 kb/s
Channel(s) : 2 channels
Channel positions : Front: L R
Sampling rate : 48.0 kHz
Frame rate : 31.250 FPS (1536 SPF)
Bit depth : 16 bits
Compression mode : Lossy
Stream size : 170 MiB (11%)
Title : Rus. Dub. TS. 2.0. 224.
Language : Russian
Service kind : Complete Main
Default : Yes
Forced : No

Релиз от: Sound Master


2023-01-24 11:31
Профиль
  • Торрент
Автор: Adams Хэш: ---
Добавлен: 2023-01-24 11:31 Приватный: Нет (DHT включён)
Статус: Проверен
Размер: 1.46 ГБ (1 565 451 897 байт)
Изменил:
---
Скачали: 13334 (Раздающих: 0%)
Причина:
---
Здоровье: 100%
Сидеров: 1423 Личеров: 246
Скорость раздачи: 0 байт/сек Скорость скачивания: 0 байт/сек
Последний сидер: 11 минут 34 секунды назад Последний личер: 11 минут 34 секунды назад
Для скачивания торрента необходимо зарегистрироваться или войти на трекер.
Показать сообщения за:  Поле сортировки  
Ответить на тему   [ 1 сообщение ] 

Кто сейчас на конференции

Сейчас этот форум просматривают: нет зарегистрированных пользователей и гости: 1


Вы не можете начинать темы
Вы не можете отвечать на сообщения
Вы не можете редактировать свои сообщения
Вы не можете удалять свои сообщения
Вы не можете добавлять вложения

Найти:
Перейти:  
Создано на основе phpBB® Forum Software © phpBB Group
ppkBB3cker v.2.5 © 2008-2021 @ PPK | Icon Theme by Everaldo.com Design Studio
Designed by ST Software.
Русская поддержка phpBB
[ Time : 0.181s | 18 Queries | GZIP : Off ]
Ресурс не предоставляет электронные версии произведений, а занимается лишь коллекционированием и каталогизацией ссылок, присылаемых и публикуемых на форуме нашими читателями. Если вы являетесь правообладателем какого-либо представленного материала и не желаете чтобы ссылка на него находилась в нашем каталоге, свяжитесь с нами и мы незамедлительно удалим её. Файлы для обмена на трекере предоставлены пользователями сайта, и администрация не несёт ответственности за их содержание. Просьба не заливать файлы, защищенные авторскими правами, а также файлы нелегального содержания!
Яндекс.Метрика