Сообщения без ответов | Активные темы Текущее время: 2022-08-10 13:10



Ответить на тему  [ 1 сообщение ] 
[ATV3] Отмель / The Shallows (Хауме Кольет-Серра / Jaume Collet-Serra ) [2016, США, Ужасы, триллер, драма, WEB-DL, HD (1080p)] DUB + Original + sub (rus, eng) 
Автор Сообщение
Постоянный
Постоянный
Аватара пользователя
Раздал: 272.82 ГБ
Скачал: 5.95 ГБ
Ратио: 45.876


Зарегистрирован: 2015-05-20 17:38
Сообщения: 1375
Откуда: Откуда и все
Ответить с цитатой 
Отмель / The Shallows
«What was once in the deep is now in the shallows»

6.509 / 10 6.70 / 10

#777Год выпуска: 2016
Страна: США
Продолжительность: 01:26:14
Перевод: Дублированный (iTunes)
Оригинальная аудиодорожка: Есть
Cубтитры: Русск[url=uztor.ru/]и[/url]е форсированные, Английские форс[url=uztor.ru/]и[/url]рованные, Русские, Английские
Жанр: Ужасы, тр[url=uztor.ru/]и[/url]ллер, драма

Режиссёр: Хауме Кольет-Серра

Сценарий: Энтони Джазвински
Продюсер: Линн Харрис, Матти Лешем, Хауме Кольет-Серра
Оператор: Флав[url=uztor.ru/]и[/url]о Мартинес Лабиано
Композитор: Марко Белтрами
Художник: Хью Бэйтап, Фиона Донован, Нэйтан Бланко Фуро
Монтаж: Джоэль Негрон

В ролях: Блейк Лайвли, Оскар Хаэнада, Бретт Каллен, Седона Ледже, Пабло Кальва, Д[url=uztor.ru/]и[/url]его Эспехель, Джанелл Бэйли, Ава Д[url=uztor.ru/]и[/url]н, Челси Муди, Салли Сигалл

Бюджет: 000 000
Сборы в США: 977 871
Сборы в мире: + 200 000 = 177 871
Сборы в России: 094 975

Мировая премьера: 21 июня 2016
Премьера (РФ): 7 июля 2016, «WDSSPR»

Описание: Бескрайний океан, безлюдный пляж и идеальная погода для серфингистов в поисках хорошей волны. Казалось бы, ничто не предвещает беды для очаровательной любительницы серфинга в одиночку. Разве что свидание тет-а-тет с гигантской акулой, которая загонит спортсменку на песчаную отмель и не отступит до тех пор, пока не получит своё.


Качество исходника: WEB-DL 1080p (BlueBird)
Качество: WEB-DL
Тип: HD (1080p)
Контейнер: M4V
Видео: H.264, 1920x792, 2.40:1, 4 547 Kbps, 23.976 fps

Аудио 1: Русский/Дублированный (iTunes), AAC / 2.0 / 160 Kbps / 48.0 KHz
Аудио 2: Английский/Оригинальная дорожка , AAC / 2.0 / 160 Kbps / 48.0 KHz
Аудио 3: Русский/Дублированный (iTunes), AC-3 / 5.1 / 384 Kbps / 48.0 KHz

Субтитры 1: Русские форсированные
Субтитры 2: Английские форсированные
Субтитры 3: Русские полные
Субтитры 4: Английские полные




Код:
Sort Name: Shallows
XID: Apple:vendor_id:2016-928626
contentID: 1120494274
Screenwriters: Энтони Джазвински
Producers: Линн Харрис, Матти Лешем, Хауме Кольет-Серра
Director: Хауме Кольет-Серра
Cast: Блейк Лайвли, Оскар Хаэнада, Бретт Каллен, Седона Ледже, Пабло Кальва, Диего Эспехель, Джанелл Бэйли, Ава Дин, Челси Муди, Салли Сигалл, Алена Фалалеева, Бруно Соэйру, Александр Новиков, Валентина Ляпина
Studio: Columbia Pictures
Rating: 4
Long Description: Бескрайний океан, безлюдный пляж и идеальная погода для серфингистов в поисках хорошей волны. Казалось бы, ничто не предвещает беды для очаровательной любительницы серфинга в одиночку. Разве что свидание тет-а-тет с гигантской акулой, которая загонит спортсменку на песчаную отмель и не отступит до тех пор, пока не получит своё.
Description: Бескрайний океан, безлюдный пляж и идеальная погода для серфингистов в поисках хорошей волны. Казалось бы, ничто не предвещает беды для очаровательной любительницы серфинга в одиночку. Разве что свидание тет-а-тет с гигантской акулой, которая загонит спортсменку на песчаную отмель и не отступит до тех пор, пока не получит своё.
Release Date: 2016-06-21T08:00:00Z
Genre: Drama
Artist: Jaume Collet-Serra
Name: The Shallows


Код:
General
Complete name : /Users/imac/HandBrake/The.Shallows.WEB-DL.1080p.m4v
Format : MPEG-4
Codec ID : M4V
File size : 3.16 GiB
Duration : 1h 26mn
Overall bit rate mode : Variable
Overall bit rate : 5 254 Kbps
Movie name : The Shallows
Performer : Jaume Collet-Serra
Director : Хауме Кольет-Серра
Actor : Блейк Лайвли / Оскар Хаэнада / Бретт Каллен / Седона Ледже / Пабло Кальва / Диего Эспехель / Джанелл Бэйли / Ава Дин / Челси Муди / Салли Сигалл / Алена Фалалеева / Бруно Соэйру / Александр Новиков / Валентина Ляпина
Screenplay by : Энтони Джазвински
Producer : Линн Харрис / Матти Лешем / Хауме Кольет-Серра
Production studio : Columbia Pictures
Genre : Drama
ContentType : Short Film
Description : Бескрайний океан, безлюдный пляж и идеальная погода для серфингистов в поисках хорошей волны. Казалось бы, ничто не предвещает беды для очаровательной любительницы серфинга в одиночку. Разве что свидание тет-а-тет с гигантской акулой, которая загонит спортсменку на песчаную отмель и не отступит до тех пор, пока не получит своё.
Recorded date : UTC 2016-06-21 08:00:00
Encoded date : UTC 2016-09-07 22:29:34
Tagged date : UTC 2016-09-07 22:32:27
Cover : Yes
Rating : None
Title/Sort : Shallows
LongDescription : Бескрайний океан, безлюдный пляж и идеальная погода для серфингистов в поисках хорошей волны. Казалось бы, ничто не предвещает беды для очаровательной любительницы серфинга в одиночку. Разве что свидание тет-а-тет с гигантской акулой, которая загонит спортсменку на песчаную отмель и не отступит до тех пор, пока не получит своё.
AppleStoreCatalogID : 1120494274
Vendor : Apple:vendor_id:2016-928626
ContentRating : mpaa|PG-13|300|

Video #1
ID : 1
Format : AVC
Format/Info : Advanced Video Codec
Format profile : High@L4
Format settings, CABAC : Yes
Format settings, ReFrames : 5 frames
Codec ID : avc1
Codec ID/Info : Advanced Video Coding
Duration : 1h 26mn
Bit rate : 4 547 Kbps
Width : 1 920 pixels
Height : 792 pixels
Display aspect ratio : 2.40:1
Frame rate mode : Variable
Frame rate : 23.976 fps
Minimum frame rate : 23.810 fps
Maximum frame rate : 24.390 fps
Color space : YUV
Chroma subsampling : 4:2:0
Bit depth : 8 bits
Scan type : Progressive
Bits/(Pixel*Frame) : 0.125
Stream size : 2.74 GiB (87%)
Title : Main Program
Language : English
Encoded date : UTC 2016-09-07 22:29:34
Tagged date : UTC 2016-09-07 22:30:43
Color range : Limited
Color primaries : BT.709
Transfer characteristics : BT.709
Matrix coefficients : BT.709

Video #2
ID : 10
Format : JPEG
Codec ID : jpeg
Duration : 1h 26mn
Bit rate mode : Variable
Bit rate : 1 166 bps
Width : 640 pixels
Height : 264 pixels
Display aspect ratio : 2.40:1
Frame rate mode : Variable
Frame rate : 0.003 fps
Minimum frame rate : 0.002 fps
Maximum frame rate : 0.005 fps
Color space : YUV
Chroma subsampling : 4:2:0
Bit depth : 8 bits
Compression mode : Lossy
Bits/(Pixel*Frame) : 2.300
Stream size : 759 KiB (0%)
Title : Chapter Images
Language : English
Encoded date : UTC 2016-09-07 22:30:49
Tagged date : UTC 2016-09-07 22:30:49

Audio #1
ID : 2
Format : AAC
Format/Info : Advanced Audio Codec
Format profile : LC
Codec ID : 40
Duration : 1h 26mn
Bit rate mode : Variable
Bit rate : 157 Kbps
Maximum bit rate : 228 Kbps
Channel(s) : 2 channels
Channel positions : Front: L R
Sampling rate : 48.0 KHz
Compression mode : Lossy
Stream size : 97.0 MiB (3%)
Title : Russian Stereo
Language : Russian
Encoded date : UTC 2016-09-07 22:29:34
Tagged date : UTC 2016-09-07 22:29:38

Audio #2
ID : 3
Format : AAC
Format/Info : Advanced Audio Codec
Format profile : LC
Codec ID : 40
Duration : 1h 26mn
Bit rate mode : Variable
Bit rate : 157 Kbps
Maximum bit rate : 237 Kbps
Channel(s) : 2 channels
Channel positions : Front: L R
Sampling rate : 48.0 KHz
Compression mode : Lossy
Stream size : 96.7 MiB (3%)
Title : English Stereo
Language : English
Encoded date : UTC 2016-09-07 22:29:34
Tagged date : UTC 2016-09-07 22:29:38

Audio #3
ID : 4
Format : AC-3
Format/Info : Audio Coding 3
Mode extension : CM (complete main)
Format settings, Endianness : Big
Codec ID : ac-3
Duration : 1h 26mn
Bit rate mode : Constant
Bit rate : 384 Kbps
Channel(s) : 6 channels
Channel positions : Front: L C R, Side: L R, LFE
Sampling rate : 48.0 KHz
Bit depth : 16 bits
Compression mode : Lossy
Stream size : 237 MiB (7%)
Title : Russian DD 5.1
Language : Russian
Encoded date : UTC 2016-09-07 22:29:34
Tagged date : UTC 2016-09-07 22:30:43

Text #1
ID : 5
Format : Timed Text
Muxing mode : sbtl
Codec ID : tx3g
Duration : 1h 21mn
Bit rate mode : Variable
Bit rate : 2 bps
Stream size : 1.14 KiB (0%)
Title : Russian Forced
Language : Russian
Encoded date : UTC 2016-09-07 22:29:34
Tagged date : UTC 2016-09-07 22:30:43

Text #2
ID : 6
Format : Timed Text
Muxing mode : sbtl
Codec ID : tx3g
Duration : 7mn 59s
Bit rate mode : Variable
Bit rate : 5 bps
Stream size : 274 Bytes (0%)
Title : English Forced
Language : English
Encoded date : UTC 2016-09-07 22:29:34
Tagged date : UTC 2016-09-07 22:30:43

Text #3
ID : 7
Format : Timed Text
Muxing mode : sbtl
Codec ID : tx3g
Duration : 1h 21mn
Bit rate mode : Variable
Bit rate : 34 bps
Stream size : 20.1 KiB (0%)
Title : Russian Full
Language : Russian
Encoded date : UTC 2016-09-07 22:29:34
Tagged date : UTC 2016-09-07 22:30:43

Text #4
ID : 8
Format : Timed Text
Muxing mode : sbtl
Codec ID : tx3g
Duration : 1h 20mn
Bit rate mode : Variable
Bit rate : 26 bps
Stream size : 15.1 KiB (0%)
Title : English Full
Language : English
Encoded date : UTC 2016-09-07 22:29:34
Tagged date : UTC 2016-09-07 22:30:43

Menu #1
00:00:00.000 : 1
00:08:08.697 : 2
00:15:09.409 : 3
00:20:30.938 : 4
00:25:44.876 : 5
00:30:06.053 : 6
00:36:03.118 : 7
00:40:38.685 : 8
00:45:40.611 : 9
00:49:31.216 : 10
00:55:56.976 : 11
01:01:20.507 : 12
01:06:21.558 : 13
01:09:56.439 : 14
01:13:37.701 : 15
01:19:00.482 : 16

Menu #2
ID : 9
Codec ID : text
Duration : 1h 26mn
Language : English
Encoded date : UTC 2016-09-07 22:30:43
Tagged date : UTC 2016-09-07 22:30:43
00:00:00.000 : 1
00:08:08.697 : 2
00:15:09.409 : 3
00:20:30.938 : 4
00:25:44.876 : 5
00:30:06.053 : 6
00:36:03.118 : 7
00:40:38.685 : 8
00:45:40.611 : 9
00:49:31.216 : 10
00:55:56.976 : 11
01:01:20.507 : 12
01:06:21.558 : 13
01:09:56.439 : 14
01:13:37.701 : 15
01:19:00.482 : 16
Bit rate mode : VBR






Релиз подготовлен для просмотра на Apple TV, iPad, iPhone, iPod Touch.
Для просмотра данного релиза на компьютере с ОС Windows рекомендуется использовать VLC media player


2016-09-08 15:20
Профиль WWW
  • Торрент
Автор: Блудный Хэш: ---
Добавлен: 2016-09-08 15:20 Приватный: Нет (DHT включён)
Статус:
---
Размер: 3.16 ГБ (3 398 261 810 байт)
Изменил:
---
Скачали: 0 (Раздающих: 0%)
Причина:
---
Здоровье: 0%
Сидеров: 0 Личеров: 0
Скорость раздачи: 0 байт/сек Скорость скачивания: 0 байт/сек
Последний сидер: Нет Последний личер: Нет
Для скачивания торрента необходимо зарегистрироваться или войти на трекер.
Показать сообщения за:  Поле сортировки  
Ответить на тему   [ 1 сообщение ] 

Кто сейчас на конференции

Сейчас этот форум просматривают: нет зарегистрированных пользователей и гости: 1


Вы не можете начинать темы
Вы не можете отвечать на сообщения
Вы не можете редактировать свои сообщения
Вы не можете удалять свои сообщения
Вы не можете добавлять вложения

Найти:
Перейти:  
Создано на основе phpBB® Forum Software © phpBB Group
ppkBB3cker v.2.5 © 2008-2021 @ PPK | Icon Theme by Everaldo.com Design Studio
Designed by ST Software.
Русская поддержка phpBB
[ Time : 0.183s | 20 Queries | GZIP : Off ]
Ресурс не предоставляет электронные версии произведений, а занимается лишь коллекционированием и каталогизацией ссылок, присылаемых и публикуемых на форуме нашими читателями. Если вы являетесь правообладателем какого-либо представленного материала и не желаете чтобы ссылка на него находилась в нашем каталоге, свяжитесь с нами и мы незамедлительно удалим её. Файлы для обмена на трекере предоставлены пользователями сайта, и администрация не несёт ответственности за их содержание. Просьба не заливать файлы, защищенные авторскими правами, а также файлы нелегального содержания!
tracker_cron Яндекс.Метрика