Сообщения без ответов | Активные темы Текущее время: 2022-05-17 01:09



Ответить на тему  [ 1 сообщение ] 
Кометы и метеориты: Гости из далёких миров / Fireball: Visitors from Darker Worlds (Вернер Херцог и др.) [2020, документальный, WEB-DL 1080p / AMS] 
Автор Сообщение
Релизер
Релизер
Аватара пользователя
Раздал: 333.48 ГБ
Скачал: 7.47 ГБ
Ратио: 1043.767


Зарегистрирован: 2020-05-15 00:14
Сообщения: 1445
Ответить с цитатой 
Кометы и метеориты: Гости из далёких миров / Fireball: Visitors from Darker Worlds


#777

Информация о фильме
Название: Кометы и метеориты: Гости из далёких миров
Оригинальное название: Fireball: Visitors from Darker Worlds
Год выхода: 2020
Страна: США
Студия: Sandbox Films (II), Spring Films, Werner Herzog Filmproduktion
Продолжительность: 01:37:42
Перевод: Любительский (многоголосый, закадровый) AMS (Adiós Muchachos Studio)
Жанр: документальный

Режиссер: Вернер Херцог, Клив Оппенхаймер

В ролях: Вернер Херцог, Джон Брэли Кихл, Джон Ларсен, Клив Оппенхаймер и другие

О фильме:
О метеорах, кометах, их влиянии на древние религии и о прочих культурных и физических воздействиях, которые они оказали на Землю. Удивительное путешествие по нашей планете и Вселенной от режиссеров Вернера Херцога и Клайва Оппенгеймера. О том, как небесные тела заставили нас задуматься о далеких мирах и по-другому взглянуть на собственный.



***Примечание: Без рекламы

Файл
Качество: WEB-DL 1080p | Fireball.Visitors.From.Darker.Worlds.2020.1080p.ATVP.WEB-DL.DDP5.1.Atmos.x264-TEPES
Формат: Matroska
Видео: 1920x1080 at 23.976 fps, MPEG4-AVC, ~9710 kbps avg
Аудио#1: Russian: 48 kHz, AC3, 3/2 (L,C,R,l,r) + LFE ch, ~640 kbps avg |Многоголосый закадровый, AMS|
Аудио#2: English: 48 kHz, AC3, 3/2 (L,C,R,l,r) + LFE ch, ~640 kbps avg
Субтитры: Russian (Full |Apple TV+|), Ukrainian (Full |Apple TV+|), English (Forced, Full, SDH)

Общее
Уникальный идентификатор : 237965167688435727799595741057870479619 (0xB3066C99801436CABD3FB4C270F84103)
Полное имя : Fireball.Visitors.From.Darker.Worlds.2020.WEB-DL.1080p.AMS.mkv
Формат : Matroska
Версия формата : Version 2
Размер файла : 7,65 Гбайт
Продолжительность : 1 ч. 37 м.
Общий поток : 11,2 Мбит/сек
Название фильма : Кометы и метеориты: Гости из далёких миров / Fireball: Visitors from Darker Worlds (2020)
Дата кодирования : UTC 2020-11-25 10:08:26
Программа кодирования : mkvmerge v5.8.0 ('No Sleep / Pillow') built on Sep 2 2012 15:37:04
Библиотека кодирования : libebml v1.2.3 + libmatroska v1.3.0

Видео
Идентификатор : 1
Формат : AVC
Формат/Информация : Advanced Video Codec
Профиль формата : High@L4
Настройки формата : CABAC / 4 Ref Frames
Параметр CABAC формата : Да
Параметр RefFrames формата : 4 кадра
Идентификатор кодека : V_MPEG4/ISO/AVC
Продолжительность : 1 ч. 37 м.
Битрейт : 9 710 Кбит/сек
Ширина : 1 920 пикселей
Высота : 1 080 пикселей
Соотношение сторон : 16:9
Режим частоты кадров : Постоянный
Частота кадров : 23,976 (24000/1001) кадра/сек
Цветовое пространство : YUV
Субдискретизация насыщенности : 4:2:0
Битовая глубина : 8 бит
Тип развёртки : Прогрессивная
Бит/(Пиксели*Кадры) : 0.195
Размер потока : 6,63 Гбайт (87%)
Язык : English
Default : Да
Forced : Нет
Цветовой диапазон : Limited
Основные цвета : BT.709
Характеристики трансфера : BT.709
Коэффициенты матрицы : BT.709

Аудио #1
Идентификатор : 2
Формат : AC-3
Формат/Информация : Audio Coding 3
Коммерческое название : Dolby Digital
Идентификатор кодека : A_AC3
Продолжительность : 1 ч. 37 м.
Вид битрейта : Постоянный
Битрейт : 640 Кбит/сек
Каналы : 6 каналов
Channel layout : L R C LFE Ls Rs
Частота : 48,0 КГц
Частота кадров : 31,250 кадров/сек (1536 SPF)
Метод сжатия : С потерями
Размер потока : 447 Мбайт (6%)
Заголовок : AMS
Язык : Russian
Service kind : Complete Main
Default : Да
Forced : Нет

Аудио #2
Идентификатор : 3
Формат : AC-3
Формат/Информация : Audio Coding 3
Коммерческое название : Dolby Digital
Идентификатор кодека : A_AC3
Продолжительность : 1 ч. 37 м.
Вид битрейта : Постоянный
Битрейт : 640 Кбит/сек
Каналы : 6 каналов
Channel layout : L R C LFE Ls Rs
Частота : 48,0 КГц
Частота кадров : 31,250 кадров/сек (1536 SPF)
Метод сжатия : С потерями
Размер потока : 447 Мбайт (6%)
Язык : English
Service kind : Complete Main
Default : Нет
Forced : Нет

Текст #1
Идентификатор : 4
Формат : UTF-8
Идентификатор кодека : S_TEXT/UTF8
Идентификатор кодека/Информация : UTF-8 Plain Text
Заголовок : Full
Язык : Russian
Default : Нет
Forced : Нет

Текст #2
Идентификатор : 5
Формат : UTF-8
Идентификатор кодека : S_TEXT/UTF8
Идентификатор кодека/Информация : UTF-8 Plain Text
Заголовок : Full
Язык : Ukrainian
Default : Нет
Forced : Нет

Текст #3
Идентификатор : 6
Формат : UTF-8
Идентификатор кодека : S_TEXT/UTF8
Идентификатор кодека/Информация : UTF-8 Plain Text
Заголовок : Forced
Язык : English
Default : Нет
Forced : Нет

Текст #4
Идентификатор : 7
Формат : UTF-8
Идентификатор кодека : S_TEXT/UTF8
Идентификатор кодека/Информация : UTF-8 Plain Text
Заголовок : Full
Язык : English
Default : Нет
Forced : Нет

Текст #5
Идентификатор : 8
Формат : UTF-8
Идентификатор кодека : S_TEXT/UTF8
Идентификатор кодека/Информация : UTF-8 Plain Text
Заголовок : SDH
Язык : English
Default : Нет
Forced : Нет


2020-11-26 13:04
Профиль
  • Торрент
Автор: Zebra Хэш: ---
Добавлен: 2020-11-26 13:04 Приватный: Нет (DHT включён)
Статус: Проверен
Размер: 7.65 ГБ (8 216 655 583 байт)
Изменил:
---
Скачали: 684 (Раздающих: 0%)
Причина:
---
Здоровье: 100%
Сидеров: 141 Личеров: 63
Скорость раздачи: 0 байт/сек Скорость скачивания: 0 байт/сек
Последний сидер: 1 год 23 дня 2 часа 54 минуты 59 секунд назад Последний личер: 1 год 23 дня 2 часа 54 минуты 59 секунд назад
Для скачивания торрента необходимо зарегистрироваться или войти на трекер.
Показать сообщения за:  Поле сортировки  
Ответить на тему   [ 1 сообщение ] 

Кто сейчас на конференции

Сейчас этот форум просматривают: нет зарегистрированных пользователей и гости: 1


Вы не можете начинать темы
Вы не можете отвечать на сообщения
Вы не можете редактировать свои сообщения
Вы не можете удалять свои сообщения
Вы не можете добавлять вложения

Найти:
Перейти:  
Создано на основе phpBB® Forum Software © phpBB Group
ppkBB3cker v.2.5 © 2008-2021 @ PPK | Icon Theme by Everaldo.com Design Studio
Designed by ST Software.
Русская поддержка phpBB
[ Time : 0.196s | 18 Queries | GZIP : Off ]
Ресурс не предоставляет электронные версии произведений, а занимается лишь коллекционированием и каталогизацией ссылок, присылаемых и публикуемых на форуме нашими читателями. Если вы являетесь правообладателем какого-либо представленного материала и не желаете чтобы ссылка на него находилась в нашем каталоге, свяжитесь с нами и мы незамедлительно удалим её. Файлы для обмена на трекере предоставлены пользователями сайта, и администрация не несёт ответственности за их содержание. Просьба не заливать файлы, защищенные авторскими правами, а также файлы нелегального содержания!
tracker_cron Яндекс.Метрика